<?xml version="1.0" standalone="no"?>
<!DOCTYPE svg PUBLIC "-//W3C//DTD SVG 1.1//EN" "http://www.w3.org/Graphics/SVG/1.1/DTD/svg11.dtd" >
<svg xmlns="http://www.w3.org/2000/svg" xmlns:xlink="http://www.w3.org/1999/xlink" version="1.1">
<metadata>
Created by FontForge 20170731 at Wed Jun 14 12:00:55 2023
 By Aleksey,,,
Copyright 2014 The DM Sans Project Authors (https://github.com/googlefonts/dm-fonts)
</metadata>
<defs>
<font id="DMSans-Medium" horiz-adv-x="0" >
  <font-face 
    font-family="DM Sans Medium"
    font-weight="500"
    font-stretch="normal"
    units-per-em="1000"
    panose-1="0 0 0 0 0 0 0 0 0 0"
    ascent="800"
    descent="-200"
    x-height="504"
    cap-height="700"
    bbox="-60 -262 1139 970"
    underline-thickness="50"
    underline-position="-175"
    unicode-range="U+000D-2215"
  />
<missing-glyph horiz-adv-x="547" 
d="M73 0v700h401v-700h-401zM143 57h261v586h-261v-586z" />
    <glyph glyph-name="fi" unicode="fi" horiz-adv-x="578" 
d="M95 0v419h-74v85h74v68q0 52 17.5 85t51.5 48t82 15h52v-85h-36q-36 0 -51.5 -14.5t-15.5 -50.5v-66h307v-504h-100v419h-207v-419h-100zM453 591q-28 0 -47 18t-19 46q0 27 19 44.5t47 17.5q29 0 47.5 -17.5t18.5 -44.5q0 -28 -18.5 -46t-47.5 -18z" />
    <glyph glyph-name="fl" unicode="fl" horiz-adv-x="586" 
d="M95 0v572q0 52 17.5 85t51.5 48t82 15h59v-85h-43q-36 0 -51.5 -14.5t-15.5 -50.5v-570h-100zM21 419v85h295v-85h-295zM418 0v720h100v-720h-100z" />
    <glyph glyph-name=".notdef" horiz-adv-x="547" 
d="M73 0v700h401v-700h-401zM143 57h261v586h-261v-586z" />
    <glyph glyph-name=".null" 
 />
    <glyph glyph-name="nonmarkingreturn" horiz-adv-x="333" 
 />
    <glyph glyph-name="CR" unicode="&#xd;" horiz-adv-x="600" 
 />
    <glyph glyph-name="space" unicode=" " horiz-adv-x="256" 
 />
    <glyph glyph-name="exclam" unicode="!" horiz-adv-x="268" 
d="M92 208l-12 492h108l-11 -492h-85zM135 -5q-29 0 -47.5 18.5t-18.5 44.5q0 27 18.5 45.5t47.5 18.5q28 0 46.5 -18.5t18.5 -45.5q0 -26 -18.5 -44.5t-46.5 -18.5z" />
    <glyph glyph-name="quotedbl" unicode="&#x22;" horiz-adv-x="314" 
d="M197 547l-12 208h91l-10 -208h-69zM50 547l-12 208h92l-11 -208h-69z" />
    <glyph glyph-name="numbersign" unicode="#" horiz-adv-x="821" 
d="M438 0l150 712h93l-148 -712h-95zM142 0l149 712h95l-149 -712h-95zM42 189v89h688v-89h-688zM87 436v88h689v-88h-689z" />
    <glyph glyph-name="dollar" unicode="$" horiz-adv-x="587" 
d="M259 -87v878h68v-878h-68zM302 -12q-77 0 -135 27.5t-90 77.5t-32 117h105q1 -38 18.5 -69.5t51 -50t82.5 -18.5q42 0 72.5 14t46.5 38.5t16 56.5q0 37 -17 61t-45.5 39.5t-66 27.5t-78.5 26q-83 27 -123.5 70t-40.5 112q0 59 28 102.5t78.5 68t119.5 24.5q68 0 119 -25
t80 -69t29 -103h-106q0 27 -14 53t-42 42.5t-69 16.5q-34 1 -61 -11t-42 -35t-15 -55t13.5 -51.5t39.5 -33.5t60.5 -25.5l76.5 -25.5q52 -17 92.5 -41.5t64 -63t23.5 -98.5q0 -52 -27 -97t-80 -73.5t-132 -28.5z" />
    <glyph glyph-name="percent" unicode="%" horiz-adv-x="822" 
d="M158 0l402 700h99l-402 -700h-99zM617 -12q-46 0 -83 21t-59 59.5t-22 90.5q0 54 22 92t59 59t83 21q48 0 84.5 -21t58 -59t21.5 -92q0 -52 -21.5 -90.5t-58.5 -59.5t-84 -21zM616 62q23 0 41.5 11t30 32.5t11.5 54.5t-11 54.5t-29.5 32.5t-41.5 11q-21 0 -40 -11
t-30.5 -32.5t-11.5 -54.5t11.5 -54.5t30 -32.5t39.5 -11zM206 368q-46 0 -83 21t-59.5 59.5t-22.5 91.5t22.5 91t60 59t83.5 21t83 -21t58.5 -59t21.5 -91t-21.5 -91.5t-59 -59.5t-83.5 -21zM206 442q22 0 40.5 11t29.5 32.5t11 54.5t-11 55t-29.5 33t-39.5 11
q-22 0 -41.5 -11t-31 -33t-11.5 -55q0 -32 11.5 -54t30.5 -33t41 -11z" />
    <glyph glyph-name="ampersand" unicode="&#x26;" horiz-adv-x="748" 
d="M601 0l-380 385q-47 46 -66.5 84t-19.5 82q0 46 22.5 82.5t65 57.5t101.5 21t100.5 -21.5t64 -58.5t21.5 -84h-98q0 42 -26 63.5t-62 21.5q-43 0 -67.5 -22.5t-24.5 -58.5q0 -29 17 -58.5t51 -65.5l424 -428h-123zM283 -12q-72 0 -127 26.5t-85 75t-30 112.5
q0 51 21 93.5t62 75t101 52.5l38 13l49 -64l-41 -14q-67 -23 -99 -61t-32 -90q0 -38 18.5 -69t51.5 -48t77 -17q57 0 102 24.5t89 80.5q20 26 41 59t44 75l28 51h104l-42 -77q-26 -51 -52.5 -92.5t-53.5 -73.5q-57 -70 -120.5 -101t-143.5 -31z" />
    <glyph glyph-name="quotesingle" unicode="'" horiz-adv-x="171" 
d="M51 547l-13 208h94l-12 -208h-69z" />
    <glyph glyph-name="parenleft" unicode="(" horiz-adv-x="383" 
d="M245 -145q-54 53 -99.5 125.5t-72 161t-26.5 191.5t26.5 191.5t72 161.5t99.5 125h102v-9q-61 -62 -106 -136t-70 -158t-25 -175t25 -175t70.5 -158t105.5 -136v-9h-102z" />
    <glyph glyph-name="parenright" unicode=")" horiz-adv-x="383" 
d="M137 -145h-101v9q61 62 105.5 136t69.5 158t25 175t-25 175t-69.5 158t-105.5 136v9h101q56 -52 100.5 -125t71.5 -161.5t27 -191.5t-27 -191.5t-71.5 -161t-100.5 -125.5z" />
    <glyph glyph-name="asterisk" unicode="*" horiz-adv-x="490" 
d="M210 360l14 149l-120 -88l-40 70l136 58l-135 56l38 67l122 -87l-16 149h77l-17 -149l121 87l37 -66l-136 -58l136 -58l-38 -68l-120 87l16 -149h-75z" />
    <glyph glyph-name="plus" unicode="+" horiz-adv-x="559" 
d="M235 69v442h88v-442h-88zM46 248v84h467v-84h-467z" />
    <glyph glyph-name="comma" unicode="," horiz-adv-x="202" 
d="M10 -123l57 231h101l-91 -231h-67z" />
    <glyph glyph-name="hyphen" unicode="-" horiz-adv-x="552" 
d="M74 253v84h404v-84h-404z" />
    <glyph glyph-name="period" unicode="." horiz-adv-x="215" 
d="M108 -5q-29 0 -47.5 18.5t-18.5 44.5q0 27 18.5 45.5t47.5 18.5t47 -18.5t18 -45.5q0 -26 -18 -44.5t-47 -18.5z" />
    <glyph glyph-name="slash" unicode="/" horiz-adv-x="403" 
d="M27 -101l250 870h98l-250 -870h-98z" />
    <glyph glyph-name="zero" unicode="0" horiz-adv-x="690" 
d="M346 -12q-93 0 -160 45.5t-103 127t-36 189.5t36 189.5t103 127t160 45.5t159.5 -45.5t102 -127t35.5 -189.5t-35.5 -189.5t-102 -127t-159.5 -45.5zM346 77q56 0 100.5 33t69.5 94t25 146t-25 146t-69.5 93.5t-100.5 32.5q-57 0 -102 -32.5t-70 -93.5t-25 -146t25 -146
t70 -94t102 -33z" />
    <glyph glyph-name="one" unicode="1" horiz-adv-x="328" 
d="M153 0v587l-122 -31v75l159 69h65v-700h-102z" />
    <glyph glyph-name="two" unicode="2" horiz-adv-x="577" 
d="M59 0v72q70 54 133 109t112.5 109.5t77.5 107t28 100.5q0 34 -12 63t-38 47.5t-71 18.5q-43 0 -71.5 -19t-43 -50.5t-14.5 -69.5h-97q1 72 31 122t81.5 76t115.5 26q67 0 116 -24.5t76 -71t27 -113.5q0 -48 -19 -95.5t-51.5 -92.5t-72.5 -86.5t-82.5 -78.5t-81.5 -67h329
v-83h-473z" />
    <glyph glyph-name="three" unicode="3" horiz-adv-x="594" 
d="M295 -12q-67 0 -122.5 24.5t-88 74t-34.5 124.5h100q1 -38 18 -69t49.5 -49.5t77.5 -18.5t75.5 17t46 46t15.5 65q0 45 -21.5 73t-58 42t-81.5 14h-52v84h52q63 0 100.5 29t37.5 82q0 44 -29 72t-85 28t-88.5 -32t-36.5 -81h-99q3 59 31.5 104.5t78 70t114.5 24.5
q70 0 117.5 -24.5t72 -65.5t24.5 -90q0 -37 -14 -68.5t-40 -54.5t-63 -33q40 -8 72 -31t50 -59.5t18 -84.5q0 -57 -27 -105.5t-79.5 -78t-130.5 -29.5z" />
    <glyph glyph-name="four" unicode="4" horiz-adv-x="621" 
d="M391 0v143h-351v78l335 479h115v-470h100v-87h-100v-143h-99zM149 230h248v360v0z" />
    <glyph glyph-name="five" unicode="5" horiz-adv-x="614" 
d="M314 -12q-74 0 -127 26.5t-84 72t-38 102.5h98q10 -51 50 -83.5t101 -32.5q46 0 79 22t51 59t18 82q0 48 -18.5 83.5t-51 55.5t-75.5 20q-52 0 -89.5 -23.5t-54.5 -59.5h-97l58 388h377v-87h-300l-37 -196q24 27 64.5 44.5t92.5 17.5q53 0 95 -19t71.5 -52t45 -77
t15.5 -93q0 -53 -17 -98t-48.5 -79.5t-77 -53.5t-101.5 -19z" />
    <glyph glyph-name="six" unicode="6" horiz-adv-x="630" 
d="M328 -12q-77 0 -129.5 28.5t-84.5 77t-46.5 108t-14.5 122.5q0 116 32.5 203t93.5 136t147 49q69 0 117.5 -26.5t76 -70.5t33.5 -97h-93q-9 52 -44.5 80.5t-90.5 28.5q-49 0 -88 -30.5t-61.5 -92.5t-25.5 -157v-3v-4q15 30 43 55t66.5 39.5t83.5 14.5q59 0 110.5 -27.5
t83.5 -78.5t32 -119q0 -61 -29.5 -115t-83.5 -87.5t-128 -33.5zM321 75q43 0 76.5 18.5t53 51.5t19.5 75q0 43 -19.5 75.5t-53 50.5t-76.5 18t-77 -19.5t-54 -52t-20 -73.5q0 -42 20 -74.5t54.5 -51t76.5 -18.5z" />
    <glyph glyph-name="seven" unicode="7" horiz-adv-x="535" 
d="M130 0l267 614h-370v86h473v-73l-266 -627h-104z" />
    <glyph glyph-name="eight" unicode="8" horiz-adv-x="616" 
d="M308 -12q-69 0 -124.5 25.5t-88 71.5t-32.5 107q0 43 16 79.5t45 63.5t68 39q-52 21 -82 62t-30 90q0 51 27 93t78 67.5t123 25.5t123 -25.5t77.5 -67.5t26.5 -93q0 -49 -29.5 -90.5t-81.5 -61.5q39 -12 68 -39t45 -63.5t16 -79.5q0 -61 -32.5 -107t-88 -71.5
t-124.5 -25.5zM308 74q73 0 109.5 34.5t36.5 90.5q0 63 -39.5 96t-106.5 33t-106.5 -33t-39.5 -96q0 -56 36.5 -90.5t109.5 -34.5zM308 407q59 0 93.5 31t34.5 79q0 55 -34 83t-94 28q-59 0 -93 -28t-34 -83q0 -48 34 -79t93 -31z" />
    <glyph glyph-name="nine" unicode="9" horiz-adv-x="630" 
d="M304 -12q-68 0 -116 26.5t-76 71t-34 96.5h93q10 -52 45 -80.5t89 -28.5q50 0 88 30t61 91t26 154q1 3 1 6v6q-16 -30 -44 -55t-65.5 -39.5t-83.5 -14.5q-59 0 -110.5 27.5t-84 78.5t-32.5 119q0 61 29.5 115t84 87.5t128.5 33.5q77 0 129.5 -28.5t84 -77t46 -108
t14.5 -122.5q0 -115 -32 -202.5t-93 -136.5t-148 -49zM310 336q43 0 77 19.5t54 52.5t20 73q0 42 -20 74.5t-54.5 51t-77.5 18.5q-42 0 -76 -18.5t-53.5 -51t-19.5 -75.5t19.5 -75.5t53.5 -50.5t77 -18z" />
    <glyph glyph-name="colon" unicode=":" horiz-adv-x="218" 
d="M108 -5q-29 0 -47.5 18.5t-18.5 44.5q0 27 18.5 45.5t47.5 18.5t47 -18.5t18 -45.5q0 -26 -18 -44.5t-47 -18.5zM108 389q-29 0 -47.5 18.5t-18.5 44.5q0 27 18.5 45.5t47.5 18.5t47 -18.5t18 -45.5q0 -26 -18 -44.5t-47 -18.5z" />
    <glyph glyph-name="semicolon" unicode=";" horiz-adv-x="243" 
d="M133 389q-29 0 -47.5 18.5t-18.5 44.5q0 27 18.5 45.5t47.5 18.5t47 -18.5t18 -45.5q0 -26 -18 -44.5t-47 -18.5zM27 -123l57 231h101l-91 -231h-67z" />
    <glyph glyph-name="less" unicode="&#x3c;" horiz-adv-x="559" 
d="M462 46h-127l-237 228v0l237 230h127l-238 -230z" />
    <glyph glyph-name="equal" unicode="=" horiz-adv-x="559" 
d="M75 354v86h408v-86h-408zM75 141v86h408v-86h-408z" />
    <glyph glyph-name="greater" unicode="&#x3e;" horiz-adv-x="559" 
d="M98 46l237 228l-237 230h127l236 -230v0l-236 -228h-127z" />
    <glyph glyph-name="question" unicode="?" horiz-adv-x="528" 
d="M153 209l-4 158h36q41 0 77.5 5t64.5 19.5t44.5 42t16.5 71.5q0 39 -16 66.5t-45.5 42t-67.5 14.5q-39 0 -68.5 -14.5t-45.5 -41t-16 -63.5h-95q0 60 28 106t79 71.5t118 25.5q66 0 117 -25t80 -71t29 -111q0 -72 -31 -117.5t-85.5 -67t-125.5 -21.5l-3 -90h-87zM197 -5
q-29 0 -47.5 18.5t-18.5 44.5q0 27 18.5 45.5t47.5 18.5t47 -18.5t18 -45.5q0 -26 -18 -44.5t-47 -18.5z" />
    <glyph glyph-name="at" unicode="@" horiz-adv-x="1018" 
d="M435 -204q-107 0 -188 42t-126 119.5t-45 183.5q0 107 36.5 198.5t102.5 160t157.5 107t201.5 38.5q112 0 194.5 -43t128 -119.5t45.5 -177.5q0 -59 -14 -114t-42 -99.5t-68.5 -71t-92.5 -26.5q-63 0 -91.5 38t-20.5 99l3 33l18 -38q-25 -61 -78.5 -96.5t-116.5 -35.5
q-75 0 -117 46t-42 124q0 55 17 105t48.5 89.5t74.5 62.5t96 23q60 0 95 -31.5t42 -91.5l-21 -13l23 126h83l-49 -280q-7 -41 3.5 -66.5t46.5 -25.5q31 0 54 22t38.5 57.5t23.5 77.5t8 82q0 86 -36.5 147t-103.5 94.5t-160 33.5q-90 0 -164.5 -33t-129 -91.5t-84.5 -136
t-30 -166.5q0 -90 35.5 -153.5t102 -96t157.5 -32.5q44 0 87.5 8.5t80.5 25.5l16 -67q-45 -19 -95.5 -28.5t-103.5 -9.5zM469 69q40 0 72.5 21.5t54 60t26.5 88.5q3 36 -7 65.5t-33.5 47t-60.5 17.5q-35 0 -63 -16t-47.5 -43t-30 -61t-10.5 -69q0 -50 25 -80.5t74 -30.5z
" />
    <glyph glyph-name="A" unicode="A" horiz-adv-x="678" 
d="M28 0l257 700h109l257 -700h-107l-205 580v0l-206 -580h-105zM144 173l28 80h329l28 -80h-385z" />
    <glyph glyph-name="B" unicode="B" horiz-adv-x="614" 
d="M73 0v700h259q73 0 122 -23.5t73.5 -64t24.5 -91.5q0 -53 -23 -89t-60.5 -55.5t-80.5 -22.5l14 10q46 -1 84 -24.5t60 -62.5t22 -86q0 -54 -26 -97.5t-77 -68.5t-125 -25h-267zM173 83h154q66 0 102.5 30.5t36.5 86.5q0 55 -37.5 88t-103.5 33h-152v-238zM173 398h148
q63 0 96 29.5t33 81.5q0 50 -33 79.5t-99 29.5h-145v-220z" />
    <glyph glyph-name="C" unicode="C" horiz-adv-x="724" 
d="M380 -12q-103 0 -177.5 45.5t-115 127t-40.5 189.5q0 107 40.5 189t115 127.5t177.5 45.5q123 0 199.5 -59t97.5 -166h-110q-15 62 -61.5 99t-125.5 37q-71 0 -123 -33t-80 -94t-28 -146t28 -146.5t80 -94t123 -32.5q79 0 125.5 35.5t61.5 96.5h110
q-21 -104 -97.5 -162.5t-199.5 -58.5z" />
    <glyph glyph-name="D" unicode="D" horiz-adv-x="694" 
d="M73 0v700h215q122 0 202 -43t118.5 -121.5t38.5 -186.5t-38.5 -186t-118 -120.5t-202.5 -42.5h-215zM173 84h111q97 0 154 32t81.5 91.5t24.5 141.5q0 83 -24.5 143t-81.5 92t-154 32h-111v-532z" />
    <glyph glyph-name="E" unicode="E" horiz-adv-x="571" 
d="M73 0v700h442v-82h-342v-224h312v-80h-312v-232h342v-82h-442z" />
    <glyph glyph-name="F" unicode="F" horiz-adv-x="542" 
d="M73 0v700h435v-82h-335v-227h280v-80h-280v-311h-100z" />
    <glyph glyph-name="G" unicode="G" horiz-adv-x="764" 
d="M376 -12q-99 0 -173 45t-115 126t-41 189q0 107 41.5 189t119 128.5t183.5 46.5q119 0 199 -57.5t103 -159.5h-114q-15 58 -63 91.5t-126 33.5q-74 0 -128.5 -33t-83.5 -94t-29 -145q0 -85 29 -146t82 -93t122 -32q106 0 159.5 61t62.5 163h-193v77h294v-378h-91l-9 107
v0q-24 -39 -55.5 -65.5t-73.5 -40t-100 -13.5z" />
    <glyph glyph-name="H" unicode="H" horiz-adv-x="691" 
d="M518 0v700h100v-700h-100zM73 0v700h100v-700h-100zM156 316v82h384v-82h-384z" />
    <glyph glyph-name="I" unicode="I" horiz-adv-x="246" 
d="M73 0v700h100v-700h-100z" />
    <glyph glyph-name="J" unicode="J" horiz-adv-x="514" 
d="M239 -12q-65 0 -112 24.5t-73 71.5t-26 112h101q0 -34 11 -61t34.5 -42.5t62.5 -15.5t61.5 15t32.5 40.5t10 58.5v509h100v-509q0 -97 -54 -150t-148 -53z" />
    <glyph glyph-name="K" unicode="K" horiz-adv-x="606" 
d="M73 0v700h100v-304l280 304h125l-260 -278l265 -422h-122l-214 344l-74 -79v-265h-100z" />
    <glyph glyph-name="L" unicode="L" horiz-adv-x="537" 
d="M73 0v700h100v-621h320v-79h-420z" />
    <glyph glyph-name="M" unicode="M" horiz-adv-x="855" 
d="M73 0v700h118l237 -473v0l236 473h119v-700h-100v525v0l-217 -427h-77l-216 426v0v-524h-100z" />
    <glyph glyph-name="N" unicode="N" horiz-adv-x="703" 
d="M73 0v700h100l357 -537v0v537h100v-700h-100l-357 536v0v-536h-100z" />
    <glyph glyph-name="O" unicode="O" horiz-adv-x="777" 
d="M388 -12q-101 0 -177.5 45.5t-120 127t-43.5 189.5q0 107 43.5 188.5t120 127.5t177.5 46q103 0 180 -46t119.5 -127.5t42.5 -188.5q0 -108 -42.5 -189.5t-119.5 -127t-180 -45.5zM389 77q72 0 126 33t83.5 94t29.5 146t-29.5 146t-83.5 93.5t-126 32.5t-126 -32.5
t-84 -93.5t-30 -146t30 -146t84 -94t126 -33z" />
    <glyph glyph-name="P" unicode="P" horiz-adv-x="591" 
d="M73 0v700h239q84 0 138 -28t80 -75t26 -107q0 -57 -25.5 -104.5t-79.5 -76t-139 -28.5h-139v-281h-100zM173 364h135q79 0 112.5 34.5t33.5 91.5q0 61 -33.5 94t-112.5 33h-135v-253z" />
    <glyph glyph-name="Q" unicode="Q" horiz-adv-x="777" 
d="M568 -100l-241 379h115l243 -379h-117zM388 -12q-101 0 -177.5 45.5t-120 127t-43.5 189.5q0 107 43.5 188.5t120 127.5t177.5 46q103 0 180 -46t119.5 -127.5t42.5 -188.5q0 -108 -42.5 -189.5t-119.5 -127t-180 -45.5zM389 77q72 0 126 33t83.5 94t29.5 146t-29.5 146
t-83.5 93.5t-126 32.5t-126 -32.5t-84 -93.5t-30 -146t30 -146t84 -94t126 -33z" />
    <glyph glyph-name="R" unicode="R" horiz-adv-x="606" 
d="M73 0v700h237q83 0 136 -28t78.5 -74.5t25.5 -105.5q0 -56 -25.5 -103.5t-79.5 -76t-138 -28.5h-134v-284h-100zM441 0l-151 311h110l157 -311h-116zM173 360h130q74 0 109 36.5t35 93.5q0 58 -34 92t-110 34h-130v-256z" />
    <glyph glyph-name="S" unicode="S" horiz-adv-x="587" 
d="M302 -12q-77 0 -135 27.5t-90 77.5t-32 117h105q1 -38 18.5 -69.5t51 -50t82.5 -18.5q42 0 72.5 14t46.5 38.5t16 56.5q0 37 -17 61t-45.5 39.5t-66 27.5t-78.5 26q-83 27 -123.5 70t-40.5 112q0 59 28 102.5t78.5 68t119.5 24.5q68 0 119 -25t80 -69t29 -103h-106
q0 27 -14 53t-42 42.5t-69 16.5q-34 1 -61 -11t-42 -35t-15 -55t13.5 -51.5t39.5 -33.5t60.5 -25.5l76.5 -25.5q52 -17 92.5 -41.5t64 -63t23.5 -98.5q0 -52 -27 -97t-80 -73.5t-132 -28.5z" />
    <glyph glyph-name="T" unicode="T" horiz-adv-x="572" 
d="M236 0v618h-207v82h515v-82h-208v-618h-100z" />
    <glyph glyph-name="U" unicode="U" horiz-adv-x="665" 
d="M331 -12q-74 0 -134 29.5t-95.5 90t-35.5 154.5v438h100v-439q0 -63 21 -103.5t58.5 -60t87.5 -19.5q51 0 88 19.5t57.5 60t20.5 103.5v439h100v-438q0 -94 -36 -154.5t-97 -90t-135 -29.5z" />
    <glyph glyph-name="V" unicode="V" horiz-adv-x="680" 
d="M280 0l-260 700h108l212 -596v0l214 596h106l-260 -700h-120z" />
    <glyph glyph-name="W" unicode="W" horiz-adv-x="984" 
d="M216 0l-190 700h107l142 -583v0l163 583h111l158 -585v0l144 585h107l-193 -700h-117l-157 557v0l-161 -557h-114z" />
    <glyph glyph-name="X" unicode="X" horiz-adv-x="624" 
d="M37 0l216 354l-217 346h114l166 -266v0l157 266h112l-215 -350l218 -350h-114l-168 270v0l-156 -270h-113z" />
    <glyph glyph-name="Y" unicode="Y" horiz-adv-x="597" 
d="M249 0v260l-231 440h113l181 -368h-25l180 368h112l-230 -440v-260h-100z" />
    <glyph glyph-name="Z" unicode="Z" horiz-adv-x="552" 
d="M46 0v78l341 537h-337v85h453v-78l-342 -537h345v-85h-460z" />
    <glyph glyph-name="bracketleft" unicode="[" horiz-adv-x="333" 
d="M73 -158v969h202v-82h-108v-804h108v-83h-202z" />
    <glyph glyph-name="backslash" unicode="\" horiz-adv-x="403" 
d="M375 -101h-98l-250 870h98z" />
    <glyph glyph-name="bracketright" unicode="]" horiz-adv-x="333" 
d="M260 -158h-202v83h109v804h-109v82h202v-969z" />
    <glyph glyph-name="asciicircum" unicode="^" horiz-adv-x="639" 
d="M37 206l236 494h94l236 -494h-102l-181 378v0l-181 -378h-102z" />
    <glyph glyph-name="underscore" unicode="_" horiz-adv-x="681" 
d="M74 -132v95h533v-95h-533z" />
    <glyph glyph-name="grave" unicode="`" horiz-adv-x="220" 
d="M210 547l-210 114l13 82v0l207 -127z" />
    <glyph glyph-name="a" unicode="a" horiz-adv-x="557" 
d="M235 -12q-62 0 -103 21t-61 56.5t-20 76.5q0 50 26 85.5t74 54.5t115 19h131q0 44 -13 73t-38.5 43.5t-64.5 14.5q-45 0 -77 -21.5t-40 -63.5h-100q6 53 36.5 90.5t78.5 58t102 20.5q71 0 119 -25t72.5 -70.5t24.5 -108.5v-312h-87l-8 85v0q-11 -20 -26 -38t-35.5 -31
t-47 -20.5t-58.5 -7.5zM254 69q32 0 58 13t44.5 35.5t28 51t10.5 58.5v3h-119q-43 0 -69.5 -10.5t-38.5 -28.5t-12 -42q0 -25 11.5 -42.5t33.5 -27.5t53 -10z" />
    <glyph glyph-name="b" unicode="b" horiz-adv-x="635" 
d="M343 -12q-41 0 -74.5 11.5t-58.5 31.5t-42 46v0l-10 -77h-90v720h100v-295q24 38 67.5 64.5t107.5 26.5q72 0 127 -34.5t85.5 -94t30.5 -136.5q0 -75 -30.5 -135t-85.5 -94t-127 -34zM327 75q46 0 81.5 22t56 62t20.5 93t-20.5 92.5t-56 62t-81.5 22.5q-47 0 -82.5 -22.5
t-55.5 -62t-20 -92.5t20 -93t55.5 -62t82.5 -22z" />
    <glyph glyph-name="c" unicode="c" horiz-adv-x="583" 
d="M301 -12q-73 0 -130 33.5t-89.5 92.5t-32.5 137q0 79 32.5 138.5t89.5 93t130 33.5q92 0 154 -48t79 -130h-104q-10 44 -45.5 68t-84.5 24q-40 0 -74 -20.5t-54.5 -60t-20.5 -97.5q0 -43 12 -76.5t32.5 -56.5t47.5 -34.5t57 -11.5q33 0 59.5 10.5t45 31.5t25.5 50h104
q-17 -80 -79 -128.5t-154 -48.5z" />
    <glyph glyph-name="d" unicode="d" horiz-adv-x="636" 
d="M292 -12q-72 0 -127 34.5t-85.5 94t-30.5 135.5q0 77 30.5 136t86 93.5t127.5 34.5q59 0 104 -23.5t70 -66.5v294h100v-720h-89l-11 78v0q-15 -23 -39 -43.5t-58 -33.5t-78 -13zM308 75q47 0 83 22t55.5 62t19.5 93t-19.5 92.5t-55.5 62t-83 22.5q-45 0 -81 -22.5
t-56 -62t-20 -92.5t20 -93t56 -62t81 -22z" />
    <glyph glyph-name="e" unicode="e" horiz-adv-x="579" 
d="M296 -12q-72 0 -128 33t-87.5 92t-31.5 137q0 80 31.5 139.5t87.5 93t130 33.5t127 -33t82 -87.5t29 -120.5q0 -10 -0.5 -21.5t-1.5 -25.5h-412v71h314q-3 63 -42 98.5t-97 35.5q-41 0 -75 -18.5t-54.5 -54t-20.5 -89.5v-28q0 -56 20.5 -94.5t54.5 -58t74 -19.5
q48 0 79 21t46 57h100q-13 -46 -44 -82.5t-76.5 -57.5t-104.5 -21z" />
    <glyph glyph-name="f" unicode="f" horiz-adv-x="350" 
d="M95 0v572q0 52 17.5 85t51.5 48t82 15h59v-85h-43q-36 0 -51.5 -14.5t-15.5 -50.5v-570h-100zM21 419v85h295v-85h-295z" />
    <glyph glyph-name="g" unicode="g" horiz-adv-x="570" 
d="M273 -232q-69 0 -122 17.5t-82 53.5t-29 88q0 27 12 54.5t39 52.5t73 45l56 -45q-51 -19 -68.5 -45.5t-17.5 -51.5q0 -30 18 -50t49.5 -30t71.5 -10q39 0 68 11t45 31t16 47q0 32 -24 53.5t-92 25.5q-57 4 -96.5 11t-67 17t-46 22t-31.5 25v23l100 103l81 -28l-109 -101
l21 45q11 -7 21 -13.5t27 -11.5t46 -9t76 -8q68 -5 109.5 -24t60.5 -51t19 -76q0 -43 -23.5 -82t-73 -64t-127.5 -25zM273 155q-64 0 -108.5 24t-68 65t-23.5 91q0 51 23.5 91.5t68.5 65t108 24.5t107.5 -24.5t68 -65t23.5 -91.5q0 -50 -23.5 -91t-68 -65t-107.5 -24z
M273 235q49 0 78 25.5t29 74.5t-29 74.5t-78 25.5t-79 -25.5t-30 -74.5t30 -74.5t79 -25.5zM355 425l-24 79h207v-69z" />
    <glyph glyph-name="h" unicode="h" horiz-adv-x="588" 
d="M68 0v720h100v-298v0q25 44 69.5 69t98.5 25q60 0 103 -24.5t66 -73t23 -121.5v-297h-99v286q0 71 -30 107.5t-89 36.5q-40 0 -72 -19t-51 -55.5t-19 -88.5v-267h-100z" />
    <glyph glyph-name="i" unicode="i" horiz-adv-x="250" 
d="M75 0v504h100v-504h-100zM126 599q-29 0 -47.5 18t-18.5 46q0 27 18.5 44.5t47.5 17.5q28 0 47 -17.5t19 -44.5q0 -28 -19 -46t-47 -18z" />
    <glyph glyph-name="j" unicode="j" horiz-adv-x="252" 
d="M-28 -220v85h40q36 0 51 15t15 50v574h100v-576q0 -52 -17.5 -85t-51.5 -48t-82 -15h-55zM129 599q-29 0 -47.5 18t-18.5 46q0 27 18.5 44.5t47.5 17.5q28 0 46.5 -17.5t18.5 -44.5q0 -28 -18.5 -46t-46.5 -18z" />
    <glyph glyph-name="k" unicode="k" horiz-adv-x="527" 
d="M385 0l-232 276l210 228h121l-250 -267v75l277 -312h-126zM68 0v720h100v-720h-100z" />
    <glyph glyph-name="l" unicode="l" horiz-adv-x="237" 
d="M68 0v720h100v-720h-100z" />
    <glyph glyph-name="m" unicode="m" horiz-adv-x="907" 
d="M68 0v504h90l7 -71v0q24 39 64 61t90 22q38 0 69 -10.5t55 -31.5t39 -52v0q27 44 72.5 69t96.5 25q61 0 105 -24.5t67 -73t23 -120.5v-298h-99v288q0 70 -28.5 106t-83.5 36q-37 0 -66 -19t-45.5 -55t-16.5 -88v-268h-100v288q0 70 -28.5 106t-83.5 36q-35 0 -64 -19
t-46 -55t-17 -88v-268h-100z" />
    <glyph glyph-name="n" unicode="n" horiz-adv-x="587" 
d="M68 0v504h90l6 -86v0q24 45 68 71.5t101 26.5q60 0 103 -24t67 -72.5t24 -121.5v-298h-100v288q0 70 -31 106t-90 36q-39 0 -70 -18.5t-49.5 -54.5t-18.5 -88v-269h-100z" />
    <glyph glyph-name="o" unicode="o" horiz-adv-x="599" 
d="M298 -12q-71 0 -127.5 33t-89 92.5t-32.5 137.5q0 80 33 139.5t90 92.5t128 33q72 0 128 -33t88.5 -92t32.5 -139t-32.5 -139t-89.5 -92t-129 -33zM298 74q41 0 74.5 20t54 59.5t20.5 98.5t-20 98.5t-53.5 59.5t-73.5 20t-74 -20t-54.5 -59.5t-20.5 -98.5t20.5 -98.5
t54 -59.5t72.5 -20z" />
    <glyph glyph-name="p" unicode="p" horiz-adv-x="635" 
d="M68 -220v724h90l10 -78v0q16 23 40 43.5t57.5 33.5t78.5 13q72 0 126.5 -35t85 -94.5t30.5 -135.5t-31 -135.5t-85.5 -93.5t-126.5 -34q-59 0 -104 23.5t-71 65.5v-297h-100zM327 75q46 0 81.5 22t56 62t20.5 93t-20.5 92.5t-56 62t-81.5 22.5q-47 0 -82.5 -22.5
t-55.5 -62t-20 -92.5t20 -93t55.5 -62t82.5 -22z" />
    <glyph glyph-name="q" unicode="q" horiz-adv-x="636" 
d="M467 -220v298q-24 -38 -67.5 -64t-106.5 -26q-72 0 -127.5 34.5t-86 94t-30.5 135.5t31 135.5t86 94t127 34.5q41 0 74.5 -11.5t58.5 -31.5t41 -47v0l11 78h89v-724h-100zM308 75q47 0 83 22t55.5 62t19.5 93t-19.5 92.5t-55.5 62t-83 22.5q-45 0 -81 -22.5t-56 -62
t-20 -92.5t20 -93t56 -62t81 -22z" />
    <glyph glyph-name="r" unicode="r" horiz-adv-x="382" 
d="M68 0v504h90l9 -95v0q17 34 44 57.5t63.5 36.5t83.5 13v-106h-36q-31 0 -59 -7.5t-49.5 -25.5t-33.5 -49t-12 -77v-251h-100z" />
    <glyph glyph-name="s" unicode="s" horiz-adv-x="511" 
d="M263 -12q-64 0 -112 21t-76 59t-34 89h102q5 -24 19.5 -44t40 -32t60.5 -12q33 0 54.5 9.5t31.5 26t10 35.5q0 28 -13.5 42.5t-40 23t-63.5 15.5q-35 6 -67.5 16.5t-58 26.5t-40.5 40.5t-15 60.5q0 43 23 77.5t65.5 54t100.5 19.5q84 0 135 -40t60 -113h-97
q-4 34 -30 52.5t-69 18.5t-66 -17t-23 -45q0 -18 13 -32t38.5 -23.5t62.5 -17.5q53 -10 95 -25t67 -44t25 -83q1 -47 -23.5 -83t-69 -56t-105.5 -20z" />
    <glyph glyph-name="t" unicode="t" horiz-adv-x="405" 
d="M275 0q-47 0 -82 15t-54 50t-19 95v259h-87v85h87l12 126h88v-126h143v-85h-143v-260q0 -43 18 -58.5t62 -15.5h58v-85h-83z" />
    <glyph glyph-name="u" unicode="u" horiz-adv-x="587" 
d="M253 -12q-59 0 -102.5 24t-67 72t-23.5 121v299h100v-288q0 -71 31 -107t89 -36q39 0 70.5 19t49.5 55t18 88v269h100v-504h-89l-7 86v0q-23 -46 -67 -72t-102 -26z" />
    <glyph glyph-name="v" unicode="v" horiz-adv-x="539" 
d="M211 0l-189 504h105l143 -408v0l144 408h103l-188 -504h-118z" />
    <glyph glyph-name="w" unicode="w" horiz-adv-x="781" 
d="M170 0l-148 504h99l110 -420l-19 1l122 419h112l122 -419l-19 -1l109 420h101l-148 -504h-103l-128 437h20l-128 -437h-102z" />
    <glyph glyph-name="x" unicode="x" horiz-adv-x="520" 
d="M20 0l174 252l-174 252h108l132 -196v0l133 196h107l-174 -252l174 -252h-107l-133 197v0l-132 -197h-108z" />
    <glyph glyph-name="y" unicode="y" horiz-adv-x="571" 
d="M126 -220l123 276h-29l-199 448h108l158 -366v0l159 366h105l-320 -724h-105z" />
    <glyph glyph-name="z" unicode="z" horiz-adv-x="468" 
d="M35 0v81l271 339h-267v84h381v-82l-272 -339h277v-83h-390z" />
    <glyph glyph-name="braceleft" unicode="{" horiz-adv-x="441" 
d="M327 -160q-71 0 -115 39.5t-44 116.5q0 34 5.5 61.5t11 57t5.5 65.5q0 25 -9.5 46.5t-32 37t-63.5 22.5v80q41 7 63.5 22.5t32 37t9.5 46.5q0 37 -5.5 65.5t-11 56.5t-5.5 61q0 79 44 117.5t115 38.5h58v-85h-39q-40 0 -60.5 -18t-20.5 -61q0 -28 5.5 -54.5t10 -56
t4.5 -68.5q0 -52 -25.5 -90t-84.5 -51v-2q59 -12 84.5 -50.5t25.5 -91.5q0 -38 -4.5 -67.5t-10 -56t-5.5 -54.5q0 -43 20.5 -61.5t60.5 -18.5h39v-85h-58z" />
    <glyph glyph-name="bar" unicode="|" horiz-adv-x="246" 
d="M73 -100v820h100v-820h-100z" />
    <glyph glyph-name="braceright" unicode="}" horiz-adv-x="441" 
d="M113 -160h-58v85h40q39 0 59.5 18.5t20.5 61.5q0 28 -4.5 54.5t-10 56t-5.5 67.5q0 53 26.5 91.5t83.5 50.5v2q-57 13 -83.5 51t-26.5 90q0 39 5.5 68.5t10 56t4.5 54.5q0 43 -20.5 61t-59.5 18h-40v85h58q72 0 115.5 -38.5t43.5 -117.5q0 -33 -5 -61t-10.5 -56.5
t-5.5 -65.5q0 -25 9 -46.5t32 -37t63 -22.5v-80q-40 -7 -63 -22.5t-32 -37t-9 -46.5q0 -36 5.5 -65.5t10.5 -57t5 -61.5q0 -77 -43.5 -116.5t-115.5 -39.5z" />
    <glyph glyph-name="asciitilde" unicode="~" horiz-adv-x="559" 
d="M364 241q-29 0 -52 10t-43 24t-39 24t-41 10q-27 0 -43.5 -18.5t-21.5 -48.5h-75q8 54 28 88.5t50 51t67 16.5q30 0 53.5 -10t43 -23.5t39 -23.5t40.5 -10q27 0 44 18t20 48h76q-7 -53 -27 -87.5t-50 -51.5t-69 -17z" />
    <glyph glyph-name="uni00A0" unicode="&#xa0;" horiz-adv-x="256" 
 />
    <glyph glyph-name="exclamdown" unicode="&#xa1;" horiz-adv-x="268" 
d="M92 302h85l11 -491h-108zM135 516q28 0 46.5 -18.5t18.5 -45.5t-18.5 -45.5t-46.5 -18.5q-29 0 -47.5 18.5t-18.5 45.5t18.5 45.5t47.5 18.5z" />
    <glyph glyph-name="cent" unicode="&#xa2;" horiz-adv-x="583" 
d="M255 -104v153h94v-153h-94zM255 455v153h94v-153h-94zM301 -12q-73 0 -130 33.5t-89.5 92.5t-32.5 137q0 79 32.5 138.5t89.5 93t130 33.5q92 0 154 -48t79 -130h-104q-10 44 -45.5 68t-84.5 24q-40 0 -74 -20.5t-54.5 -60t-20.5 -97.5q0 -43 12 -76.5t32.5 -56.5
t47.5 -34.5t57 -11.5q33 0 59.5 10.5t45 31.5t25.5 50h104q-17 -80 -79 -128.5t-154 -48.5z" />
    <glyph glyph-name="sterling" unicode="&#xa3;" horiz-adv-x="609" 
d="M84 0v62q25 27 43.5 53.5t28.5 58t10 74.5q0 32 -8.5 61.5t-20.5 59t-20.5 63t-8.5 73.5q0 63 27.5 109.5t77 72t113.5 25.5q73 0 120.5 -28.5t73 -76t28.5 -104.5h-92q-2 54 -35 90t-94 36q-33 0 -61.5 -13.5t-45.5 -42t-17 -73.5q0 -32 8.5 -63t20 -62t20 -62t8.5 -64
q0 -46 -16.5 -88t-54.5 -79h361v-82h-466zM44 306v69h378v-69h-378z" />
    <glyph glyph-name="currency" unicode="&#xa4;" horiz-adv-x="541" 
d="M271 120q-53 0 -93.5 21.5t-63.5 61.5t-23 94q0 55 23.5 94.5t64.5 61t93 21.5q51 0 92 -21.5t64.5 -61t23.5 -94.5q0 -54 -24 -94t-65 -61.5t-92 -21.5zM109 87l-45 45l86 86l49 -40zM433 87l-83 84l45 43l82 -82zM271 192q22 0 43 10.5t35 34t14 60.5q0 38 -14 61.5
t-35 34t-43 10.5q-23 0 -44 -10.5t-34 -34t-13 -61.5q0 -37 12.5 -60.5t34 -34t44.5 -10.5zM149 381l-85 84l45 44l86 -86zM388 375l-41 47l86 87l44 -44z" />
    <glyph glyph-name="yen" unicode="&#xa5;" horiz-adv-x="617" 
d="M59 164v71h500v-71h-500zM276 322h-217v70h209zM360 322l8 70h191v-70h-199zM259 0v260l-231 440h113l181 -368h-25l180 368h112l-230 -440v-260h-100z" />
    <glyph glyph-name="brokenbar" unicode="&#xa6;" horiz-adv-x="246" 
d="M73 389v331h100v-331h-100zM73 -100v331h100v-331h-100z" />
    <glyph glyph-name="section" unicode="&#xa7;" horiz-adv-x="596" 
d="M295 -232q-68 0 -119 25t-79.5 69.5t-30.5 102.5h106q0 -27 14 -53t42 -42.5t69 -16.5q52 -1 85.5 26t33.5 75q0 32 -14 51.5t-40 32.5t-60.5 24t-76.5 25q-50 17 -91.5 42t-65 63.5t-23.5 97.5q0 37 14 71.5t42 62.5q-13 19 -20 42t-7 51q0 59 28 102.5t79 68t119 24.5
t119 -25t80 -69t29 -103h-105q-1 27 -15 53t-41.5 42.5t-69.5 16.5q-51 1 -84.5 -26t-33.5 -75q0 -32 13.5 -51.5t39.5 -32.5t60.5 -24t76.5 -25q52 -17 92.5 -42t64.5 -63.5t24 -97.5q0 -37 -14 -72t-43 -62q14 -19 20.5 -42t6.5 -51q1 -58 -27 -102t-79 -68.5t-119 -24.5z
M418 115q13 14 20 31.5t7 37.5q0 36 -15.5 59t-43 38t-63 27t-76.5 27q-22 7 -39 14.5t-32 15.5q-13 -13 -19.5 -30.5t-6.5 -38.5q0 -28 9.5 -48t28 -34.5t43 -25.5t54.5 -21t63 -22q20 -6 37.5 -14t32.5 -16z" />
    <glyph glyph-name="dieresis" unicode="&#xa8;" horiz-adv-x="317" 
d="M243 569q-23 0 -39 15.5t-16 38.5q0 22 16 38t39 16q22 0 37.5 -16t15.5 -38q0 -23 -15.5 -38.5t-37.5 -15.5zM75 569q-23 0 -38.5 15.5t-15.5 38.5q0 22 15.5 38t38.5 16q22 0 38 -16t16 -38q0 -23 -16 -38.5t-38 -15.5z" />
    <glyph glyph-name="copyright" unicode="&#xa9;" horiz-adv-x="791" 
d="M396 -5q-104 0 -182 46t-121.5 126t-43.5 184t43.5 184t121.5 125t182 45q103 0 181 -45t122 -125t44 -184t-44 -184t-122 -126t-181 -46zM396 121q-60 0 -109.5 27.5t-79 79t-29.5 123.5q0 73 29.5 124.5t79 79t109.5 27.5q75 0 131 -40t75 -115h-90q-13 41 -44.5 62.5
t-73.5 21.5q-36 0 -65.5 -18t-47 -53.5t-17.5 -88.5t17.5 -89t47 -53.5t65.5 -17.5q44 0 74 21.5t44 61.5h90q-19 -71 -75 -112t-131 -41zM396 36q94 0 162 40t105 111t37 164q0 94 -37 165t-105 110.5t-162 39.5t-162 -39.5t-105 -110.5t-37 -165q0 -93 37 -164t105 -111
t162 -40z" />
    <glyph glyph-name="ordfeminine" unicode="&#xaa;" horiz-adv-x="487" 
d="M219 347q-48 0 -86 23t-60 64.5t-22 94.5q0 55 22 95.5t59.5 62.5t84.5 22q49 0 82 -20t49 -50l7 65h71v-351h-71l-7 64v0q-15 -31 -48 -50.5t-81 -19.5zM239 409q31 0 55.5 14.5t39 41t14.5 63.5q0 57 -31.5 88t-77.5 31q-44 0 -75.5 -31t-31.5 -87q0 -57 31.5 -88.5
t75.5 -31.5z" />
    <glyph glyph-name="guillemotleft" unicode="&#xab;" horiz-adv-x="471" 
d="M325 120l-95 175l95 175h96l-97 -175l97 -175h-96zM138 120l-95 175l95 175h97l-98 -175l98 -175h-97z" />
    <glyph glyph-name="logicalnot" unicode="&#xac;" horiz-adv-x="559" 
d="M469 215v140h-478v79h578v-219h-100z" />
    <glyph glyph-name="registered" unicode="&#xae;" horiz-adv-x="506" 
d="M254 302q-60 0 -106 26.5t-72 73t-26 105.5q0 60 26 106t72 72.5t106 26.5q59 0 104.5 -26.5t71.5 -72.5t26 -106q0 -59 -26 -105.5t-71.5 -73t-104.5 -26.5zM291 401l-60 98h56l65 -98h-61zM254 342q49 0 84.5 21t55 58.5t19.5 85.5t-19.5 85t-55 58.5t-84.5 21.5
t-85.5 -21.5t-56.5 -58.5t-20 -85t20 -85.5t56.5 -58.5t85.5 -21zM172 401v215h98q34 0 53.5 -18t19.5 -49q0 -30 -19.5 -48t-53.5 -18h-47v-82h-51zM223 523h41q12 0 20 5.5t8 18.5t-8 18t-20 5h-41v-47z" />
    <glyph glyph-name="macron" unicode="&#xaf;" horiz-adv-x="387" 
d="M15 587v73h357v-73h-357z" />
    <glyph glyph-name="degree" unicode="&#xb0;" horiz-adv-x="349" 
d="M174 437q-37 0 -67.5 17t-49.5 48t-19 72q0 43 19.5 73.5t50 47.5t67.5 17t67.5 -17t49 -47.5t18.5 -73.5q0 -41 -18.5 -72t-49.5 -48t-68 -17zM174 507q23 0 43.5 17t20.5 51t-20 51t-43 17t-43 -17t-20 -51t19.5 -51t42.5 -17z" />
    <glyph glyph-name="plusminus" unicode="&#xb1;" horiz-adv-x="559" 
d="M38 0v76h482v-76h-482zM236 139v356h87v-356h-87zM38 275v84h482v-84h-482z" />
    <glyph glyph-name="uni00B2" unicode="&#xb2;" horiz-adv-x="340" 
d="M36 352v57l114 89q28 22 46.5 46t18.5 55q0 26 -14 39.5t-35 13.5q-24 0 -37.5 -14.5t-17.5 -40.5h-78q3 48 38 81t101 33q40 0 68.5 -15t43 -39.5t14.5 -53.5q0 -40 -25 -70t-75 -64l-77 -55h180v-62h-265z" />
    <glyph glyph-name="uni00B3" unicode="&#xb3;" horiz-adv-x="338" 
d="M166 347q-66 0 -101.5 28.5t-40.5 81.5h79q3 -19 11 -30.5t21 -16t29 -4.5q27 0 43 13t16 36q0 26 -18 39t-45 13h-44v44h42q27 0 44 13t17 38q0 23 -15.5 36.5t-41.5 13.5q-25 0 -40 -12t-20 -32h-74q3 28 19.5 51.5t47 37.5t74.5 14q57 0 95 -29.5t38 -73.5
q0 -31 -17.5 -50.5t-47.5 -27.5v-2q30 -10 49.5 -30t19.5 -53q0 -41 -37.5 -69.5t-102.5 -28.5z" />
    <glyph glyph-name="acute" unicode="&#xb4;" horiz-adv-x="220" 
d="M10 547l-10 69l207 127v0l13 -82z" />
    <glyph glyph-name="uni00B5" unicode="&#xb5;" horiz-adv-x="597" 
d="M68 -220v716h100v-276q0 -72 30.5 -109.5t90.5 -37.5q40 0 71.5 19.5t49.5 57t18 89.5v257h100v-496h-89l-7 86v0q-24 -45 -68.5 -71.5t-102.5 -26.5q-26 0 -50 6.5t-43 19.5v-234h-100z" />
    <glyph glyph-name="paragraph" unicode="&#xb6;" horiz-adv-x="608" 
d="M284 -100v391h-13q-81 0 -133.5 27t-77.5 73.5t-25 103.5t25.5 103.5t78 74t132.5 27.5h264v-800h-87v722h-78v-722h-86z" />
    <glyph glyph-name="periodcentered" unicode="&#xb7;" horiz-adv-x="215" 
d="M108 273q-29 0 -47.5 18.5t-18.5 45.5q0 28 18.5 46t47.5 18t47 -18t18 -46q0 -27 -18 -45.5t-47 -18.5z" />
    <glyph glyph-name="cedilla" unicode="&#xb8;" horiz-adv-x="240" 
d="M0 -260v60h99q32 0 47.5 11t15.5 33q0 21 -15.5 31t-47.5 10h-53v122h65v-65q36 1 65.5 -10t46.5 -33.5t17 -56.5q0 -32 -16.5 -55t-44.5 -35t-63 -12h-116z" />
    <glyph glyph-name="uni00B9" unicode="&#xb9;" horiz-adv-x="214" 
d="M94 352v276l-67 -17v49l97 44h49v-352h-79z" />
    <glyph glyph-name="ordmasculine" unicode="&#xba;" horiz-adv-x="467" 
d="M233 348q-55 0 -96.5 23t-64.5 64t-23 95q0 55 23.5 96t65.5 63.5t96 22.5t96 -22.5t65 -63.5t23 -96q0 -54 -23.5 -95t-65.5 -64t-96 -23zM233 411q29 0 52.5 14t37.5 40.5t14 64.5q0 40 -14 66.5t-37.5 40t-52.5 13.5t-52.5 -13.5t-37 -40t-13.5 -66.5
q0 -38 13.5 -64.5t37 -40.5t52.5 -14z" />
    <glyph glyph-name="guillemotright" unicode="&#xbb;" horiz-adv-x="471" 
d="M147 120h-97l98 175l-98 175h97l94 -175zM333 120h-96l97 175l-97 175h96l95 -175z" />
    <glyph glyph-name="onequarter" unicode="&#xbc;" horiz-adv-x="747" 
d="M94 352v276l-67 -17v49l97 44h49v-352h-79zM96 0l403 700h100l-404 -700h-99zM609 0v64h-169v56l161 228h85v-225h43v-59h-43v-64h-77zM520 123h95v141v0z" />
    <glyph glyph-name="onehalf" unicode="&#xbd;" horiz-adv-x="785" 
d="M94 352v276l-67 -17v49l97 44h49v-352h-79zM96 0l403 700h100l-404 -700h-99zM482 0v57l114 89q28 22 46.5 46t18.5 55q0 26 -14 39.5t-35 13.5q-24 0 -37.5 -14.5t-17.5 -40.5h-78q3 48 38 81t101 33q40 0 68.5 -15t43 -39.5t14.5 -53.5q0 -40 -25 -70t-75 -64l-77 -55
h180v-62h-265z" />
    <glyph glyph-name="threequarters" unicode="&#xbe;" horiz-adv-x="847" 
d="M166 347q-66 0 -101.5 28.5t-40.5 81.5h79q3 -19 11 -30.5t21 -16t29 -4.5q27 0 43 13t16 36q0 26 -18 39t-45 13h-44v44h42q27 0 44 13t17 38q0 23 -15.5 36.5t-41.5 13.5q-25 0 -40 -12t-20 -32h-74q3 28 19.5 51.5t47 37.5t74.5 14q57 0 95 -29.5t38 -73.5
q0 -31 -17.5 -50.5t-47.5 -27.5v-2q30 -10 49.5 -30t19.5 -53q0 -41 -37.5 -69.5t-102.5 -28.5zM196 0l403 700h100l-404 -700h-99zM709 0v64h-169v56l161 228h85v-225h43v-59h-43v-64h-77zM620 123h95v141v0z" />
    <glyph glyph-name="questiondown" unicode="&#xbf;" horiz-adv-x="528" 
d="M375 301l4 -157h-36q-41 0 -77.5 -5.5t-64.5 -20t-44.5 -41.5t-16.5 -72q0 -37 16.5 -65t45.5 -43t67 -15q40 0 69 15t45 41.5t16 62.5h95q1 -60 -27.5 -105.5t-79 -71t-118.5 -25.5q-66 0 -117 24.5t-79.5 71t-28.5 110.5q0 73 30.5 118.5t85.5 67t125 21.5l2 89h88z
M332 516q28 0 46.5 -18.5t18.5 -45.5t-18.5 -45.5t-46.5 -18.5q-29 0 -47.5 18.5t-18.5 45.5t18.5 45.5t47.5 18.5z" />
    <glyph glyph-name="Agrave" unicode="&#xc0;" horiz-adv-x="678" 
d="M28 0l257 700h109l257 -700h-107l-205 580v0l-206 -580h-105zM144 173l28 80h329l28 -80h-385zM440 743l-210 115l13 81v0l207 -126z" />
    <glyph glyph-name="Aacute" unicode="&#xc1;" horiz-adv-x="678" 
d="M28 0l257 700h109l257 -700h-107l-205 580v0l-206 -580h-105zM144 173l28 80h329l28 -80h-385zM240 743l-10 70l207 126v0l13 -81z" />
    <glyph glyph-name="Acircumflex" unicode="&#xc2;" horiz-adv-x="678" 
d="M28 0l257 700h109l257 -700h-107l-205 580v0l-206 -580h-105zM144 173l28 80h329l28 -80h-385zM200 752v75l140 81l141 -81v-75l-141 84z" />
    <glyph glyph-name="Atilde" unicode="&#xc3;" horiz-adv-x="678" 
d="M28 0l257 700h109l257 -700h-107l-205 580v0l-206 -580h-105zM144 173l28 80h329l28 -80h-385zM404 754q-27 0 -46 12t-35 23.5t-37 11.5q-16 0 -27.5 -11t-14.5 -34h-56q8 55 35.5 82.5t67.5 27.5q27 0 45.5 -11.5t35 -23.5t37.5 -12q17 0 28.5 11.5t14.5 33.5h56
q-7 -55 -35 -82.5t-69 -27.5z" />
    <glyph glyph-name="Adieresis" unicode="&#xc4;" horiz-adv-x="678" 
d="M28 0l257 700h109l257 -700h-107l-205 580v0l-206 -580h-105zM144 173l28 80h329l28 -80h-385zM257 773q-23 0 -38.5 15.5t-15.5 38.5q0 22 15.5 38t38.5 16q22 0 38.5 -16t16.5 -38q0 -23 -16.5 -38.5t-38.5 -15.5zM425 773q-23 0 -39 15.5t-16 38.5q0 22 16 38t39 16
q22 0 37.5 -16t15.5 -38q0 -23 -15.5 -38.5t-37.5 -15.5z" />
    <glyph glyph-name="Aring" unicode="&#xc5;" horiz-adv-x="678" 
d="M28 0l257 700h109l257 -700h-107l-205 580v0l-206 -580h-105zM144 173l28 80h329l28 -80h-385zM340 757q-44 0 -76 28.5t-32 78.5q0 49 32 77.5t76 28.5q45 0 76.5 -28.5t31.5 -77.5q0 -50 -31.5 -78.5t-76.5 -28.5zM340 806q23 0 39 16t16 42q0 27 -16 42t-39 15
q-22 0 -38.5 -15t-16.5 -42q0 -26 16.5 -42t38.5 -16z" />
    <glyph glyph-name="AE" unicode="&#xc6;" horiz-adv-x="922" 
d="M28 0l391 700h447v-80h-283v-227h253v-78h-253v-235h283v-80h-383v620v0l-346 -620h-109zM166 151l42 79h322v-79h-364z" />
    <glyph glyph-name="Ccedilla" unicode="&#xc7;" horiz-adv-x="724" 
d="M380 -12q-103 0 -177.5 45.5t-115 127t-40.5 189.5q0 107 40.5 189t115 127.5t177.5 45.5q123 0 199.5 -59t97.5 -166h-110q-15 62 -61.5 99t-125.5 37q-71 0 -123 -33t-80 -94t-28 -146t28 -146.5t80 -94t123 -32.5q79 0 125.5 35.5t61.5 96.5h110
q-21 -104 -97.5 -162.5t-199.5 -58.5zM288 -262v60h99q32 0 47.5 11t15.5 33q0 21 -15.5 31t-47.5 10h-53v122h65v-65q36 1 65.5 -10t46.5 -33.5t17 -56.5q0 -32 -16.5 -55t-44.5 -35t-63 -12h-116z" />
    <glyph glyph-name="Egrave" unicode="&#xc8;" horiz-adv-x="571" 
d="M73 0v700h442v-82h-342v-224h312v-80h-312v-232h342v-82h-442zM394 743l-210 115l13 81v0l207 -126z" />
    <glyph glyph-name="Eacute" unicode="&#xc9;" horiz-adv-x="571" 
d="M73 0v700h442v-82h-342v-224h312v-80h-312v-232h342v-82h-442zM194 743l-10 70l207 126v0l13 -81z" />
    <glyph glyph-name="Ecircumflex" unicode="&#xca;" horiz-adv-x="571" 
d="M73 0v700h442v-82h-342v-224h312v-80h-312v-232h342v-82h-442zM154 752v75l140 81l141 -81v-75l-141 84z" />
    <glyph glyph-name="Edieresis" unicode="&#xcb;" horiz-adv-x="571" 
d="M73 0v700h442v-82h-342v-224h312v-80h-312v-232h342v-82h-442zM211 773q-23 0 -38.5 15.5t-15.5 38.5q0 22 15.5 38t38.5 16q22 0 38.5 -16t16.5 -38q0 -23 -16.5 -38.5t-38.5 -15.5zM379 773q-23 0 -39 15.5t-16 38.5q0 22 16 38t39 16q22 0 37.5 -16t15.5 -38
q0 -23 -15.5 -38.5t-37.5 -15.5z" />
    <glyph glyph-name="Igrave" unicode="&#xcc;" horiz-adv-x="246" 
d="M73 0v700h100v-700h-100zM223 743l-210 115l13 81v0l207 -126z" />
    <glyph glyph-name="Iacute" unicode="&#xcd;" horiz-adv-x="246" 
d="M73 0v700h100v-700h-100zM23 743l-10 70l207 126v0l13 -81z" />
    <glyph glyph-name="Icircumflex" unicode="&#xce;" horiz-adv-x="246" 
d="M73 0v700h100v-700h-100zM-17 752v75l140 81l141 -81v-75l-141 84z" />
    <glyph glyph-name="Idieresis" unicode="&#xcf;" horiz-adv-x="246" 
d="M73 0v700h100v-700h-100zM40 773q-23 0 -38.5 15.5t-15.5 38.5q0 22 15.5 38t38.5 16q22 0 38.5 -16t16.5 -38q0 -23 -16.5 -38.5t-38.5 -15.5zM208 773q-23 0 -39 15.5t-16 38.5q0 22 16 38t39 16q22 0 37.5 -16t15.5 -38q0 -23 -15.5 -38.5t-37.5 -15.5z" />
    <glyph glyph-name="Eth" unicode="&#xd0;" horiz-adv-x="712" 
d="M7 305v88h376v-88h-376zM91 0v700h215q123 0 202.5 -43t118 -121.5t38.5 -186.5t-38.5 -186t-118 -120.5t-202.5 -42.5h-215zM191 84h111q97 0 154 32t81.5 91.5t24.5 141.5q0 83 -24.5 143t-81.5 92t-154 32h-111v-532z" />
    <glyph glyph-name="Ntilde" unicode="&#xd1;" horiz-adv-x="703" 
d="M73 0v700h100l357 -537v0v537h100v-700h-100l-357 536v0v-536h-100zM416 754q-27 0 -46 12t-35 23.5t-37 11.5q-16 0 -27.5 -11t-14.5 -34h-56q8 55 35.5 82.5t67.5 27.5q27 0 45.5 -11.5t35 -23.5t37.5 -12q17 0 28.5 11.5t14.5 33.5h56q-7 -55 -35 -82.5t-69 -27.5z
" />
    <glyph glyph-name="Ograve" unicode="&#xd2;" horiz-adv-x="777" 
d="M388 -12q-101 0 -177.5 45.5t-120 127t-43.5 189.5q0 107 43.5 188.5t120 127.5t177.5 46q103 0 180 -46t119.5 -127.5t42.5 -188.5q0 -108 -42.5 -189.5t-119.5 -127t-180 -45.5zM389 77q72 0 126 33t83.5 94t29.5 146t-29.5 146t-83.5 93.5t-126 32.5t-126 -32.5
t-84 -93.5t-30 -146t30 -146t84 -94t126 -33zM489 743l-210 115l13 81v0l207 -126z" />
    <glyph glyph-name="Oacute" unicode="&#xd3;" horiz-adv-x="777" 
d="M388 -12q-101 0 -177.5 45.5t-120 127t-43.5 189.5q0 107 43.5 188.5t120 127.5t177.5 46q103 0 180 -46t119.5 -127.5t42.5 -188.5q0 -108 -42.5 -189.5t-119.5 -127t-180 -45.5zM389 77q72 0 126 33t83.5 94t29.5 146t-29.5 146t-83.5 93.5t-126 32.5t-126 -32.5
t-84 -93.5t-30 -146t30 -146t84 -94t126 -33zM289 743l-10 70l207 126v0l13 -81z" />
    <glyph glyph-name="Ocircumflex" unicode="&#xd4;" horiz-adv-x="777" 
d="M388 -12q-101 0 -177.5 45.5t-120 127t-43.5 189.5q0 107 43.5 188.5t120 127.5t177.5 46q103 0 180 -46t119.5 -127.5t42.5 -188.5q0 -108 -42.5 -189.5t-119.5 -127t-180 -45.5zM389 77q72 0 126 33t83.5 94t29.5 146t-29.5 146t-83.5 93.5t-126 32.5t-126 -32.5
t-84 -93.5t-30 -146t30 -146t84 -94t126 -33zM249 752v75l140 81l141 -81v-75l-141 84z" />
    <glyph glyph-name="Otilde" unicode="&#xd5;" horiz-adv-x="777" 
d="M388 -12q-101 0 -177.5 45.5t-120 127t-43.5 189.5q0 107 43.5 188.5t120 127.5t177.5 46q103 0 180 -46t119.5 -127.5t42.5 -188.5q0 -108 -42.5 -189.5t-119.5 -127t-180 -45.5zM389 77q72 0 126 33t83.5 94t29.5 146t-29.5 146t-83.5 93.5t-126 32.5t-126 -32.5
t-84 -93.5t-30 -146t30 -146t84 -94t126 -33zM453 754q-27 0 -46 12t-35 23.5t-37 11.5q-16 0 -27.5 -11t-14.5 -34h-56q8 55 35.5 82.5t67.5 27.5q27 0 45.5 -11.5t35 -23.5t37.5 -12q17 0 28.5 11.5t14.5 33.5h56q-7 -55 -35 -82.5t-69 -27.5z" />
    <glyph glyph-name="Odieresis" unicode="&#xd6;" horiz-adv-x="777" 
d="M388 -12q-101 0 -177.5 45.5t-120 127t-43.5 189.5q0 107 43.5 188.5t120 127.5t177.5 46q103 0 180 -46t119.5 -127.5t42.5 -188.5q0 -108 -42.5 -189.5t-119.5 -127t-180 -45.5zM389 77q72 0 126 33t83.5 94t29.5 146t-29.5 146t-83.5 93.5t-126 32.5t-126 -32.5
t-84 -93.5t-30 -146t30 -146t84 -94t126 -33zM306 773q-23 0 -38.5 15.5t-15.5 38.5q0 22 15.5 38t38.5 16q22 0 38.5 -16t16.5 -38q0 -23 -16.5 -38.5t-38.5 -15.5zM474 773q-23 0 -39 15.5t-16 38.5q0 22 16 38t39 16q22 0 37.5 -16t15.5 -38q0 -23 -15.5 -38.5
t-37.5 -15.5z" />
    <glyph glyph-name="multiply" unicode="&#xd7;" horiz-adv-x="559" 
d="M148 100l-59 59l131 132l-127 126l60 59l127 -126l130 131l59 -59l-130 -131l126 -127l-60 -59l-126 126z" />
    <glyph glyph-name="Oslash" unicode="&#xd8;" horiz-adv-x="777" 
d="M32 0l612 700h101l-612 -700h-101zM388 -12q-101 0 -178 45.5t-120 127t-43 189.5q0 107 43 188.5t120 127.5t178 46q103 0 180 -46t119.5 -127.5t42.5 -188.5q0 -108 -42.5 -189.5t-119.5 -127t-180 -45.5zM389 77q72 0 126 33t83.5 94t29.5 146t-29.5 146t-83.5 93.5
t-126 32.5t-126 -32.5t-84 -93.5t-30 -146t30 -146t84 -94t126 -33z" />
    <glyph glyph-name="Ugrave" unicode="&#xd9;" horiz-adv-x="665" 
d="M331 -12q-74 0 -134 29.5t-95.5 90t-35.5 154.5v438h100v-439q0 -63 21 -103.5t58.5 -60t87.5 -19.5q51 0 88 19.5t57.5 60t20.5 103.5v439h100v-438q0 -94 -36 -154.5t-97 -90t-135 -29.5zM431 743l-210 115l13 81v0l207 -126z" />
    <glyph glyph-name="Uacute" unicode="&#xda;" horiz-adv-x="665" 
d="M331 -12q-74 0 -134 29.5t-95.5 90t-35.5 154.5v438h100v-439q0 -63 21 -103.5t58.5 -60t87.5 -19.5q51 0 88 19.5t57.5 60t20.5 103.5v439h100v-438q0 -94 -36 -154.5t-97 -90t-135 -29.5zM231 743l-10 70l207 126v0l13 -81z" />
    <glyph glyph-name="Ucircumflex" unicode="&#xdb;" horiz-adv-x="665" 
d="M331 -12q-74 0 -134 29.5t-95.5 90t-35.5 154.5v438h100v-439q0 -63 21 -103.5t58.5 -60t87.5 -19.5q51 0 88 19.5t57.5 60t20.5 103.5v439h100v-438q0 -94 -36 -154.5t-97 -90t-135 -29.5zM191 752v75l140 81l141 -81v-75l-141 84z" />
    <glyph glyph-name="Udieresis" unicode="&#xdc;" horiz-adv-x="665" 
d="M331 -12q-74 0 -134 29.5t-95.5 90t-35.5 154.5v438h100v-439q0 -63 21 -103.5t58.5 -60t87.5 -19.5q51 0 88 19.5t57.5 60t20.5 103.5v439h100v-438q0 -94 -36 -154.5t-97 -90t-135 -29.5zM248 773q-23 0 -38.5 15.5t-15.5 38.5q0 22 15.5 38t38.5 16q22 0 38.5 -16
t16.5 -38q0 -23 -16.5 -38.5t-38.5 -15.5zM416 773q-23 0 -39 15.5t-16 38.5q0 22 16 38t39 16q22 0 37.5 -16t15.5 -38q0 -23 -15.5 -38.5t-37.5 -15.5z" />
    <glyph glyph-name="Yacute" unicode="&#xdd;" horiz-adv-x="597" 
d="M249 0v260l-231 440h113l181 -368h-25l180 368h112l-230 -440v-260h-100zM199 743l-10 70l207 126v0l13 -81z" />
    <glyph glyph-name="Thorn" unicode="&#xde;" horiz-adv-x="591" 
d="M73 0v700h100v-142h140q83 0 137 -27t80 -74t26 -107q0 -57 -25.5 -104t-79 -75t-138.5 -28h-140v-143h-100zM173 225h136q77 0 111 34t34 91q0 60 -34 92.5t-111 32.5h-136v-250z" />
    <glyph glyph-name="germandbls" unicode="&#xdf;" horiz-adv-x="676" 
d="M448 -10q-87 0 -142 48t-64 133h96q5 -47 33 -75.5t76 -28.5q44 0 68.5 21t24.5 59q0 35 -21.5 56t-76.5 40q-79 27 -114 56t-35 74q0 30 14 49t34.5 33t40.5 27.5t34 30.5t14 42q0 43 -33.5 68t-91.5 25q-70 0 -103 -38.5t-33 -103.5v-506h-99v515q0 63 27.5 112
t80.5 77t130 28q72 0 121 -22.5t74.5 -60.5t25.5 -84q0 -34 -13 -57t-33.5 -38.5t-41 -27t-34 -24.5t-13.5 -31q0 -13 9 -25t32.5 -23.5t66.5 -26.5q74 -25 106 -63t32 -95q0 -49 -23.5 -86t-66 -57.5t-102.5 -20.5z" />
    <glyph glyph-name="agrave" unicode="&#xe0;" horiz-adv-x="557" 
d="M235 -12q-62 0 -103 21t-61 56.5t-20 76.5q0 50 26 85.5t74 54.5t115 19h131q0 44 -13 73t-38.5 43.5t-64.5 14.5q-45 0 -77 -21.5t-40 -63.5h-100q6 53 36.5 90.5t78.5 58t102 20.5q71 0 119 -25t72.5 -70.5t24.5 -108.5v-312h-87l-8 85v0q-11 -20 -26 -38t-35.5 -31
t-47 -20.5t-58.5 -7.5zM254 69q32 0 58 13t44.5 35.5t28 51t10.5 58.5v3h-119q-43 0 -69.5 -10.5t-38.5 -28.5t-12 -42q0 -25 11.5 -42.5t33.5 -27.5t53 -10zM375 547l-210 114l13 82v0l207 -127z" />
    <glyph glyph-name="aacute" unicode="&#xe1;" horiz-adv-x="557" 
d="M235 -12q-62 0 -103 21t-61 56.5t-20 76.5q0 50 26 85.5t74 54.5t115 19h131q0 44 -13 73t-38.5 43.5t-64.5 14.5q-45 0 -77 -21.5t-40 -63.5h-100q6 53 36.5 90.5t78.5 58t102 20.5q71 0 119 -25t72.5 -70.5t24.5 -108.5v-312h-87l-8 85v0q-11 -20 -26 -38t-35.5 -31
t-47 -20.5t-58.5 -7.5zM254 69q32 0 58 13t44.5 35.5t28 51t10.5 58.5v3h-119q-43 0 -69.5 -10.5t-38.5 -28.5t-12 -42q0 -25 11.5 -42.5t33.5 -27.5t53 -10zM175 547l-10 69l207 127v0l13 -82z" />
    <glyph glyph-name="acircumflex" unicode="&#xe2;" horiz-adv-x="557" 
d="M235 -12q-62 0 -103 21t-61 56.5t-20 76.5q0 50 26 85.5t74 54.5t115 19h131q0 44 -13 73t-38.5 43.5t-64.5 14.5q-45 0 -77 -21.5t-40 -63.5h-100q6 53 36.5 90.5t78.5 58t102 20.5q71 0 119 -25t72.5 -70.5t24.5 -108.5v-312h-87l-8 85v0q-11 -20 -26 -38t-35.5 -31
t-47 -20.5t-58.5 -7.5zM254 69q32 0 58 13t44.5 35.5t28 51t10.5 58.5v3h-119q-43 0 -69.5 -10.5t-38.5 -28.5t-12 -42q0 -25 11.5 -42.5t33.5 -27.5t53 -10zM135 550v75l140 81l141 -81v-75l-141 83z" />
    <glyph glyph-name="atilde" unicode="&#xe3;" horiz-adv-x="557" 
d="M235 -12q-62 0 -103 21t-61 56.5t-20 76.5q0 50 26 85.5t74 54.5t115 19h131q0 44 -13 73t-38.5 43.5t-64.5 14.5q-45 0 -77 -21.5t-40 -63.5h-100q6 53 36.5 90.5t78.5 58t102 20.5q71 0 119 -25t72.5 -70.5t24.5 -108.5v-312h-87l-8 85v0q-11 -20 -26 -38t-35.5 -31
t-47 -20.5t-58.5 -7.5zM254 69q32 0 58 13t44.5 35.5t28 51t10.5 58.5v3h-119q-43 0 -69.5 -10.5t-38.5 -28.5t-12 -42q0 -25 11.5 -42.5t33.5 -27.5t53 -10zM331 570q-27 0 -46 11.5t-35 23t-37 11.5q-16 0 -27.5 -11t-14.5 -34h-56q8 55 35.5 82.5t67.5 27.5
q27 0 45.5 -11.5t35 -23.5t37.5 -12q17 0 28.5 11.5t14.5 33.5h56q-7 -54 -35 -81.5t-69 -27.5z" />
    <glyph glyph-name="adieresis" unicode="&#xe4;" horiz-adv-x="557" 
d="M235 -12q-62 0 -103 21t-61 56.5t-20 76.5q0 50 26 85.5t74 54.5t115 19h131q0 44 -13 73t-38.5 43.5t-64.5 14.5q-45 0 -77 -21.5t-40 -63.5h-100q6 53 36.5 90.5t78.5 58t102 20.5q71 0 119 -25t72.5 -70.5t24.5 -108.5v-312h-87l-8 85v0q-11 -20 -26 -38t-35.5 -31
t-47 -20.5t-58.5 -7.5zM254 69q32 0 58 13t44.5 35.5t28 51t10.5 58.5v3h-119q-43 0 -69.5 -10.5t-38.5 -28.5t-12 -42q0 -25 11.5 -42.5t33.5 -27.5t53 -10zM192 570q-23 0 -38.5 15.5t-15.5 38.5q0 22 15.5 38t38.5 16q22 0 38.5 -16t16.5 -38q0 -23 -16.5 -38.5
t-38.5 -15.5zM360 570q-23 0 -39 15.5t-16 38.5q0 22 16 38t39 16q22 0 37.5 -16t15.5 -38q0 -23 -15.5 -38.5t-37.5 -15.5z" />
    <glyph glyph-name="aring" unicode="&#xe5;" horiz-adv-x="557" 
d="M235 -12q-62 0 -103 21t-61 56.5t-20 76.5q0 50 26 85.5t74 54.5t115 19h131q0 44 -13 73t-38.5 43.5t-64.5 14.5q-45 0 -77 -21.5t-40 -63.5h-100q6 53 36.5 90.5t78.5 58t102 20.5q71 0 119 -25t72.5 -70.5t24.5 -108.5v-312h-87l-8 85v0q-11 -20 -26 -38t-35.5 -31
t-47 -20.5t-58.5 -7.5zM254 69q32 0 58 13t44.5 35.5t28 51t10.5 58.5v3h-119q-43 0 -69.5 -10.5t-38.5 -28.5t-12 -42q0 -25 11.5 -42.5t33.5 -27.5t53 -10zM275 570q-44 0 -76 28t-32 78q0 49 32 77.5t76 28.5q45 0 76.5 -28.5t31.5 -77.5q0 -50 -31.5 -78t-76.5 -28z
M275 618q23 0 39 16t16 42q0 27 -16 42t-39 15q-22 0 -38.5 -15t-16.5 -42q0 -26 16.5 -42t38.5 -16z" />
    <glyph glyph-name="ae" unicode="&#xe6;" horiz-adv-x="924" 
d="M239 -12q-62 0 -104 21t-63 56.5t-21 77.5q0 49 25.5 84.5t72.5 54t114 18.5h134q0 45 -12.5 74t-38 43.5t-62.5 14.5q-42 0 -73.5 -21.5t-39.5 -63.5h-100q5 54 35.5 91.5t77 57.5t100.5 20q63 0 108 -22t70 -62q33 40 80 62t103 22q73 0 125.5 -33t81 -87t28.5 -120
v-21.5t-2 -24.5h-379q2 -53 22.5 -88t53 -53t68.5 -18q51 0 82.5 24t46.5 65h98q-12 -49 -43 -88t-77 -61.5t-106 -22.5q-66 0 -119 30t-85 82q-20 -32 -49 -57.5t-66.5 -40t-85.5 -14.5zM251 69q40 0 70.5 20.5t50 54.5t23.5 74v12h-121q-42 0 -68 -10t-38 -28t-12 -42
t11.5 -42t33 -28.5t50.5 -10.5zM500 300h281q-4 63 -42.5 98t-93.5 35q-35 0 -66.5 -15.5t-52.5 -44.5t-26 -73z" />
    <glyph glyph-name="ccedilla" unicode="&#xe7;" horiz-adv-x="583" 
d="M301 -12q-73 0 -130 33.5t-89.5 92.5t-32.5 137q0 79 32.5 138.5t89.5 93t130 33.5q92 0 154 -48t79 -130h-104q-10 44 -45.5 68t-84.5 24q-40 0 -74 -20.5t-54.5 -60t-20.5 -97.5q0 -43 12 -76.5t32.5 -56.5t47.5 -34.5t57 -11.5q33 0 59.5 10.5t45 31.5t25.5 50h104
q-17 -80 -79 -128.5t-154 -48.5zM218 -262v60h99q32 0 47.5 11t15.5 33q0 21 -15.5 31t-47.5 10h-53v122h65v-65q36 1 65.5 -10t46.5 -33.5t17 -56.5q0 -32 -16.5 -55t-44.5 -35t-63 -12h-116z" />
    <glyph glyph-name="egrave" unicode="&#xe8;" horiz-adv-x="579" 
d="M296 -12q-72 0 -128 33t-87.5 92t-31.5 137q0 80 31.5 139.5t87.5 93t130 33.5t127 -33t82 -87.5t29 -120.5q0 -10 -0.5 -21.5t-1.5 -25.5h-412v71h314q-3 63 -42 98.5t-97 35.5q-41 0 -75 -18.5t-54.5 -54t-20.5 -89.5v-28q0 -56 20.5 -94.5t54.5 -58t74 -19.5
q48 0 79 21t46 57h100q-13 -46 -44 -82.5t-76.5 -57.5t-104.5 -21zM394 547l-210 114l13 82v0l207 -127z" />
    <glyph glyph-name="eacute" unicode="&#xe9;" horiz-adv-x="579" 
d="M296 -12q-72 0 -128 33t-87.5 92t-31.5 137q0 80 31.5 139.5t87.5 93t130 33.5t127 -33t82 -87.5t29 -120.5q0 -10 -0.5 -21.5t-1.5 -25.5h-412v71h314q-3 63 -42 98.5t-97 35.5q-41 0 -75 -18.5t-54.5 -54t-20.5 -89.5v-28q0 -56 20.5 -94.5t54.5 -58t74 -19.5
q48 0 79 21t46 57h100q-13 -46 -44 -82.5t-76.5 -57.5t-104.5 -21zM194 547l-10 69l207 127v0l13 -82z" />
    <glyph glyph-name="ecircumflex" unicode="&#xea;" horiz-adv-x="579" 
d="M296 -12q-72 0 -128 33t-87.5 92t-31.5 137q0 80 31.5 139.5t87.5 93t130 33.5t127 -33t82 -87.5t29 -120.5q0 -10 -0.5 -21.5t-1.5 -25.5h-412v71h314q-3 63 -42 98.5t-97 35.5q-41 0 -75 -18.5t-54.5 -54t-20.5 -89.5v-28q0 -56 20.5 -94.5t54.5 -58t74 -19.5
q48 0 79 21t46 57h100q-13 -46 -44 -82.5t-76.5 -57.5t-104.5 -21zM154 550v75l140 81l141 -81v-75l-141 83z" />
    <glyph glyph-name="edieresis" unicode="&#xeb;" horiz-adv-x="579" 
d="M296 -12q-72 0 -128 33t-87.5 92t-31.5 137q0 80 31.5 139.5t87.5 93t130 33.5t127 -33t82 -87.5t29 -120.5q0 -10 -0.5 -21.5t-1.5 -25.5h-412v71h314q-3 63 -42 98.5t-97 35.5q-41 0 -75 -18.5t-54.5 -54t-20.5 -89.5v-28q0 -56 20.5 -94.5t54.5 -58t74 -19.5
q48 0 79 21t46 57h100q-13 -46 -44 -82.5t-76.5 -57.5t-104.5 -21zM211 570q-23 0 -38.5 15.5t-15.5 38.5q0 22 15.5 38t38.5 16q22 0 38.5 -16t16.5 -38q0 -23 -16.5 -38.5t-38.5 -15.5zM379 570q-23 0 -39 15.5t-16 38.5q0 22 16 38t39 16q22 0 37.5 -16t15.5 -38
q0 -23 -15.5 -38.5t-37.5 -15.5z" />
    <glyph glyph-name="igrave" unicode="&#xec;" horiz-adv-x="237" 
d="M68 0v504h100v-504h-100zM218 547l-210 114l13 82v0l207 -127z" />
    <glyph glyph-name="iacute" unicode="&#xed;" horiz-adv-x="237" 
d="M68 0v504h100v-504h-100zM18 547l-10 69l207 127v0l13 -82z" />
    <glyph glyph-name="icircumflex" unicode="&#xee;" horiz-adv-x="237" 
d="M68 0v504h100v-504h-100zM-22 550v75l140 81l141 -81v-75l-141 83z" />
    <glyph glyph-name="idieresis" unicode="&#xef;" horiz-adv-x="237" 
d="M68 0v504h100v-504h-100zM35 570q-23 0 -38.5 15.5t-15.5 38.5q0 22 15.5 38t38.5 16q22 0 38.5 -16t16.5 -38q0 -23 -16.5 -38.5t-38.5 -15.5zM203 570q-23 0 -39 15.5t-16 38.5q0 22 16 38t39 16q22 0 37.5 -16t15.5 -38q0 -23 -15.5 -38.5t-37.5 -15.5z" />
    <glyph glyph-name="eth" unicode="&#xf0;" horiz-adv-x="625" 
d="M310 -12q-76 0 -135 34.5t-92.5 93.5t-33.5 134q0 76 33.5 134.5t91.5 91.5t131 33q44 0 84 -13.5t71 -44.5q-13 33 -31 65.5t-41.5 64t-52 61.5t-62.5 58h97q56 -46 95 -98.5t63.5 -107.5t36 -110t11.5 -109q0 -86 -35 -151t-95 -100.5t-136 -35.5zM312 73q44 0 81 21
t59 61t22 95t-22 94t-58.5 60t-80.5 21t-81 -21.5t-59 -60t-22 -93.5t22.5 -95t59 -61t79.5 -21zM247 546v64l289 98v-64z" />
    <glyph glyph-name="ntilde" unicode="&#xf1;" horiz-adv-x="587" 
d="M68 0v504h90l6 -86v0q24 45 68 71.5t101 26.5q60 0 103 -24t67 -72.5t24 -121.5v-298h-100v288q0 70 -31 106t-90 36q-39 0 -70 -18.5t-49.5 -54.5t-18.5 -88v-269h-100zM368 570q-27 0 -46 11.5t-35 23t-37 11.5q-16 0 -27.5 -11t-14.5 -34h-56q8 55 35.5 82.5
t67.5 27.5q27 0 45.5 -11.5t35 -23.5t37.5 -12q17 0 28.5 11.5t14.5 33.5h56q-7 -54 -35 -81.5t-69 -27.5z" />
    <glyph glyph-name="ograve" unicode="&#xf2;" horiz-adv-x="599" 
d="M298 -12q-71 0 -127.5 33t-89 92.5t-32.5 137.5q0 80 33 139.5t90 92.5t128 33q72 0 128 -33t88.5 -92t32.5 -139t-32.5 -139t-89.5 -92t-129 -33zM298 74q41 0 74.5 20t54 59.5t20.5 98.5t-20 98.5t-53.5 59.5t-73.5 20t-74 -20t-54.5 -59.5t-20.5 -98.5t20.5 -98.5
t54 -59.5t72.5 -20zM400 547l-210 114l13 82v0l207 -127z" />
    <glyph glyph-name="oacute" unicode="&#xf3;" horiz-adv-x="599" 
d="M298 -12q-71 0 -127.5 33t-89 92.5t-32.5 137.5q0 80 33 139.5t90 92.5t128 33q72 0 128 -33t88.5 -92t32.5 -139t-32.5 -139t-89.5 -92t-129 -33zM298 74q41 0 74.5 20t54 59.5t20.5 98.5t-20 98.5t-53.5 59.5t-73.5 20t-74 -20t-54.5 -59.5t-20.5 -98.5t20.5 -98.5
t54 -59.5t72.5 -20zM200 547l-10 69l207 127v0l13 -82z" />
    <glyph glyph-name="ocircumflex" unicode="&#xf4;" horiz-adv-x="599" 
d="M298 -12q-71 0 -127.5 33t-89 92.5t-32.5 137.5q0 80 33 139.5t90 92.5t128 33q72 0 128 -33t88.5 -92t32.5 -139t-32.5 -139t-89.5 -92t-129 -33zM298 74q41 0 74.5 20t54 59.5t20.5 98.5t-20 98.5t-53.5 59.5t-73.5 20t-74 -20t-54.5 -59.5t-20.5 -98.5t20.5 -98.5
t54 -59.5t72.5 -20zM160 550v75l140 81l141 -81v-75l-141 83z" />
    <glyph glyph-name="otilde" unicode="&#xf5;" horiz-adv-x="599" 
d="M298 -12q-71 0 -127.5 33t-89 92.5t-32.5 137.5q0 80 33 139.5t90 92.5t128 33q72 0 128 -33t88.5 -92t32.5 -139t-32.5 -139t-89.5 -92t-129 -33zM298 74q41 0 74.5 20t54 59.5t20.5 98.5t-20 98.5t-53.5 59.5t-73.5 20t-74 -20t-54.5 -59.5t-20.5 -98.5t20.5 -98.5
t54 -59.5t72.5 -20zM356 570q-27 0 -46 11.5t-35 23t-37 11.5q-16 0 -27.5 -11t-14.5 -34h-56q8 55 35.5 82.5t67.5 27.5q27 0 45.5 -11.5t35 -23.5t37.5 -12q17 0 28.5 11.5t14.5 33.5h56q-7 -54 -35 -81.5t-69 -27.5z" />
    <glyph glyph-name="odieresis" unicode="&#xf6;" horiz-adv-x="599" 
d="M298 -12q-71 0 -127.5 33t-89 92.5t-32.5 137.5q0 80 33 139.5t90 92.5t128 33q72 0 128 -33t88.5 -92t32.5 -139t-32.5 -139t-89.5 -92t-129 -33zM298 74q41 0 74.5 20t54 59.5t20.5 98.5t-20 98.5t-53.5 59.5t-73.5 20t-74 -20t-54.5 -59.5t-20.5 -98.5t20.5 -98.5
t54 -59.5t72.5 -20zM217 570q-23 0 -38.5 15.5t-15.5 38.5q0 22 15.5 38t38.5 16q22 0 38.5 -16t16.5 -38q0 -23 -16.5 -38.5t-38.5 -15.5zM385 570q-23 0 -39 15.5t-16 38.5q0 22 16 38t39 16q22 0 37.5 -16t15.5 -38q0 -23 -15.5 -38.5t-37.5 -15.5z" />
    <glyph glyph-name="divide" unicode="&#xf7;" horiz-adv-x="559" 
d="M75 248v84h409v-84h-409zM280 71q-28 0 -46.5 18.5t-18.5 44.5q0 27 18.5 45.5t46.5 18.5q29 0 47 -18.5t18 -45.5q0 -26 -18 -44.5t-47 -18.5zM280 384q-28 0 -46.5 18.5t-18.5 45.5t18.5 45.5t46.5 18.5q29 0 47 -18.5t18 -45.5t-18 -45.5t-47 -18.5z" />
    <glyph glyph-name="oslash" unicode="&#xf8;" horiz-adv-x="596" 
d="M37 0l435 504h87l-435 -504h-87zM297 -12q-71 0 -127.5 33t-89 92.5t-32.5 137.5q0 80 32.5 139.5t89.5 92.5t128 33q72 0 128.5 -33t89 -92t32.5 -139t-33 -139t-89.5 -92t-128.5 -33zM297 74q40 0 74 20t54.5 59.5t20.5 98.5t-20 98.5t-53.5 59.5t-74.5 20
q-39 0 -73 -20t-54.5 -59.5t-20.5 -98.5t20.5 -98.5t54 -59.5t72.5 -20z" />
    <glyph glyph-name="ugrave" unicode="&#xf9;" horiz-adv-x="587" 
d="M253 -12q-59 0 -102.5 24t-67 72t-23.5 121v299h100v-288q0 -71 31 -107t89 -36q39 0 70.5 19t49.5 55t18 88v269h100v-504h-89l-7 86v0q-23 -46 -67 -72t-102 -26zM387 547l-210 114l13 82v0l207 -127z" />
    <glyph glyph-name="uacute" unicode="&#xfa;" horiz-adv-x="587" 
d="M253 -12q-59 0 -102.5 24t-67 72t-23.5 121v299h100v-288q0 -71 31 -107t89 -36q39 0 70.5 19t49.5 55t18 88v269h100v-504h-89l-7 86v0q-23 -46 -67 -72t-102 -26zM187 547l-10 69l207 127v0l13 -82z" />
    <glyph glyph-name="ucircumflex" unicode="&#xfb;" horiz-adv-x="587" 
d="M253 -12q-59 0 -102.5 24t-67 72t-23.5 121v299h100v-288q0 -71 31 -107t89 -36q39 0 70.5 19t49.5 55t18 88v269h100v-504h-89l-7 86v0q-23 -46 -67 -72t-102 -26zM147 550v75l140 81l141 -81v-75l-141 83z" />
    <glyph glyph-name="udieresis" unicode="&#xfc;" horiz-adv-x="587" 
d="M253 -12q-59 0 -102.5 24t-67 72t-23.5 121v299h100v-288q0 -71 31 -107t89 -36q39 0 70.5 19t49.5 55t18 88v269h100v-504h-89l-7 86v0q-23 -46 -67 -72t-102 -26zM204 570q-23 0 -38.5 15.5t-15.5 38.5q0 22 15.5 38t38.5 16q22 0 38.5 -16t16.5 -38q0 -23 -16.5 -38.5
t-38.5 -15.5zM372 570q-23 0 -39 15.5t-16 38.5q0 22 16 38t39 16q22 0 37.5 -16t15.5 -38q0 -23 -15.5 -38.5t-37.5 -15.5z" />
    <glyph glyph-name="yacute" unicode="&#xfd;" horiz-adv-x="571" 
d="M126 -220l123 276h-29l-199 448h108l158 -366v0l159 366h105l-320 -724h-105zM186 547l-10 69l207 127v0l13 -82z" />
    <glyph glyph-name="thorn" unicode="&#xfe;" horiz-adv-x="635" 
d="M68 -220v940h100v-294q16 23 40 43.5t57.5 33.5t78.5 13q72 0 126.5 -34.5t85 -94.5t30.5 -136t-30.5 -135.5t-85.5 -93.5t-127 -34q-59 0 -104 23.5t-71 65.5v-297h-100zM327 75q46 0 81.5 22t56 62t20.5 93t-20.5 92.5t-56 62t-81.5 22.5q-47 0 -82.5 -22.5t-55.5 -62
t-20 -92.5t20 -93t55.5 -62t82.5 -22z" />
    <glyph glyph-name="ydieresis" unicode="&#xff;" horiz-adv-x="571" 
d="M126 -220l123 276h-29l-199 448h108l158 -366v0l159 366h105l-320 -724h-105zM203 570q-23 0 -38.5 15.5t-15.5 38.5q0 22 15.5 38t38.5 16q22 0 38.5 -16t16.5 -38q0 -23 -16.5 -38.5t-38.5 -15.5zM371 570q-23 0 -39 15.5t-16 38.5q0 22 16 38t39 16q22 0 37.5 -16
t15.5 -38q0 -23 -15.5 -38.5t-37.5 -15.5z" />
    <glyph glyph-name="Amacron" unicode="&#x100;" horiz-adv-x="678" 
d="M28 0l257 700h109l257 -700h-107l-205 580v0l-206 -580h-105zM144 173l28 80h329l28 -80h-385zM161 791v73h357v-73h-357z" />
    <glyph glyph-name="amacron" unicode="&#x101;" horiz-adv-x="557" 
d="M235 -12q-62 0 -103 21t-61 56.5t-20 76.5q0 50 26 85.5t74 54.5t115 19h131q0 44 -13 73t-38.5 43.5t-64.5 14.5q-45 0 -77 -21.5t-40 -63.5h-100q6 53 36.5 90.5t78.5 58t102 20.5q71 0 119 -25t72.5 -70.5t24.5 -108.5v-312h-87l-8 85v0q-11 -20 -26 -38t-35.5 -31
t-47 -20.5t-58.5 -7.5zM254 69q32 0 58 13t44.5 35.5t28 51t10.5 58.5v3h-119q-43 0 -69.5 -10.5t-38.5 -28.5t-12 -42q0 -25 11.5 -42.5t33.5 -27.5t53 -10zM96 594v73h357v-73h-357z" />
    <glyph glyph-name="Abreve" unicode="&#x102;" horiz-adv-x="678" 
d="M28 0l257 700h109l257 -700h-107l-205 580v0l-206 -580h-105zM144 173l28 80h329l28 -80h-385zM340 754q-47 0 -79.5 18t-49.5 49t-17 71v15h56q0 -36 20.5 -56t69.5 -20q48 0 68.5 20t20.5 56h57v-15q0 -40 -17.5 -71t-50 -49t-78.5 -18z" />
    <glyph glyph-name="abreve" unicode="&#x103;" horiz-adv-x="557" 
d="M235 -12q-62 0 -103 21t-61 56.5t-20 76.5q0 50 26 85.5t74 54.5t115 19h131q0 44 -13 73t-38.5 43.5t-64.5 14.5q-45 0 -77 -21.5t-40 -63.5h-100q6 53 36.5 90.5t78.5 58t102 20.5q71 0 119 -25t72.5 -70.5t24.5 -108.5v-312h-87l-8 85v0q-11 -20 -26 -38t-35.5 -31
t-47 -20.5t-58.5 -7.5zM254 69q32 0 58 13t44.5 35.5t28 51t10.5 58.5v3h-119q-43 0 -69.5 -10.5t-38.5 -28.5t-12 -42q0 -25 11.5 -42.5t33.5 -27.5t53 -10zM275 563q-47 0 -79.5 17.5t-49.5 49t-17 70.5v15h56q0 -36 20.5 -56t69.5 -20q48 0 68.5 20t20.5 56h57v-15
q0 -39 -17.5 -70.5t-50 -49t-78.5 -17.5z" />
    <glyph glyph-name="Aogonek" unicode="&#x104;" horiz-adv-x="678" 
d="M28 0l257 700h109l257 -700h-107l-205 580v0l-206 -580h-105zM144 173l28 80h329l28 -80h-385zM576 -206q-33 0 -61 10.5t-45.5 32t-17.5 56.5q0 25 11.5 47.5t39 44.5t74.5 42l50 22l24 -49l-56 -27q-35 -17 -49.5 -34.5t-14.5 -36.5q0 -21 15.5 -33.5t41.5 -12.5
q14 0 32 4t35 11v-63q-17 -6 -37.5 -10t-41.5 -4z" />
    <glyph glyph-name="aogonek" unicode="&#x105;" horiz-adv-x="557" 
d="M235 -12q-62 0 -103 21t-61 56.5t-20 76.5q0 50 26 85.5t74 54.5t115 19h131q0 44 -13 73t-38.5 43.5t-64.5 14.5q-45 0 -77 -21.5t-40 -63.5h-100q6 53 36.5 90.5t78.5 58t102 20.5q71 0 119 -25t72.5 -70.5t24.5 -108.5v-312h-87l-8 85v0q-11 -20 -26 -38t-35.5 -31
t-47 -20.5t-58.5 -7.5zM254 69q32 0 58 13t44.5 35.5t28 51t10.5 58.5v3h-119q-43 0 -69.5 -10.5t-38.5 -28.5t-12 -42q0 -25 11.5 -42.5t33.5 -27.5t53 -10zM422 -206q-33 0 -61 10.5t-45.5 32t-17.5 56.5q0 25 11.5 47.5t39 44.5t74.5 42l50 22l24 -49l-56 -27
q-35 -17 -49.5 -34.5t-14.5 -36.5q0 -21 15.5 -33.5t41.5 -12.5q14 0 32 4t35 11v-63q-17 -6 -37.5 -10t-41.5 -4z" />
    <glyph glyph-name="Cacute" unicode="&#x106;" horiz-adv-x="724" 
d="M380 -12q-103 0 -177.5 45.5t-115 127t-40.5 189.5q0 107 40.5 189t115 127.5t177.5 45.5q123 0 199.5 -59t97.5 -166h-110q-15 62 -61.5 99t-125.5 37q-71 0 -123 -33t-80 -94t-28 -146t28 -146.5t80 -94t123 -32.5q79 0 125.5 35.5t61.5 96.5h110
q-21 -104 -97.5 -162.5t-199.5 -58.5zM262 743l-10 70l207 126v0l13 -81z" />
    <glyph glyph-name="cacute" unicode="&#x107;" horiz-adv-x="583" 
d="M301 -12q-73 0 -130 33.5t-89.5 92.5t-32.5 137q0 79 32.5 138.5t89.5 93t130 33.5q92 0 154 -48t79 -130h-104q-10 44 -45.5 68t-84.5 24q-40 0 -74 -20.5t-54.5 -60t-20.5 -97.5q0 -43 12 -76.5t32.5 -56.5t47.5 -34.5t57 -11.5q33 0 59.5 10.5t45 31.5t25.5 50h104
q-17 -80 -79 -128.5t-154 -48.5zM191 547l-10 69l207 127v0l13 -82z" />
    <glyph glyph-name="Cdotaccent" unicode="&#x10a;" horiz-adv-x="724" 
d="M380 -12q-103 0 -177.5 45.5t-115 127t-40.5 189.5q0 107 40.5 189t115 127.5t177.5 45.5q123 0 199.5 -59t97.5 -166h-110q-15 62 -61.5 99t-125.5 37q-71 0 -123 -33t-80 -94t-28 -146t28 -146.5t80 -94t123 -32.5q79 0 125.5 35.5t61.5 96.5h110
q-21 -104 -97.5 -162.5t-199.5 -58.5zM362 765q-22 0 -38 16t-16 38q0 23 16 39t38 16t38.5 -16t16.5 -39q0 -22 -16.5 -38t-38.5 -16z" />
    <glyph glyph-name="cdotaccent" unicode="&#x10b;" horiz-adv-x="583" 
d="M301 -12q-73 0 -130 33.5t-89.5 92.5t-32.5 137q0 79 32.5 138.5t89.5 93t130 33.5q92 0 154 -48t79 -130h-104q-10 44 -45.5 68t-84.5 24q-40 0 -74 -20.5t-54.5 -60t-20.5 -97.5q0 -43 12 -76.5t32.5 -56.5t47.5 -34.5t57 -11.5q33 0 59.5 10.5t45 31.5t25.5 50h104
q-17 -80 -79 -128.5t-154 -48.5zM291 571q-22 0 -38 16t-16 38t16 38t38 16t38.5 -16t16.5 -38t-16.5 -38t-38.5 -16z" />
    <glyph glyph-name="Ccaron" unicode="&#x10c;" horiz-adv-x="724" 
d="M380 -12q-103 0 -177.5 45.5t-115 127t-40.5 189.5q0 107 40.5 189t115 127.5t177.5 45.5q123 0 199.5 -59t97.5 -166h-110q-15 62 -61.5 99t-125.5 37q-71 0 -123 -33t-80 -94t-28 -146t28 -146.5t80 -94t123 -32.5q79 0 125.5 35.5t61.5 96.5h110
q-21 -104 -97.5 -162.5t-199.5 -58.5zM362 751l-140 82v74l140 -84l141 84v-74z" />
    <glyph glyph-name="ccaron" unicode="&#x10d;" horiz-adv-x="583" 
d="M301 -12q-73 0 -130 33.5t-89.5 92.5t-32.5 137q0 79 32.5 138.5t89.5 93t130 33.5q92 0 154 -48t79 -130h-104q-10 44 -45.5 68t-84.5 24q-40 0 -74 -20.5t-54.5 -60t-20.5 -97.5q0 -43 12 -76.5t32.5 -56.5t47.5 -34.5t57 -11.5q33 0 59.5 10.5t45 31.5t25.5 50h104
q-17 -80 -79 -128.5t-154 -48.5zM291 563l-140 81v75l140 -85l141 85v-75z" />
    <glyph glyph-name="Dcaron" unicode="&#x10e;" horiz-adv-x="694" 
d="M73 0v700h215q122 0 202 -43t118.5 -121.5t38.5 -186.5t-38.5 -186t-118 -120.5t-202.5 -42.5h-215zM173 84h111q97 0 154 32t81.5 91.5t24.5 141.5q0 83 -24.5 143t-81.5 92t-154 32h-111v-532zM281 751l-140 82v74l140 -84l141 84v-74z" />
    <glyph glyph-name="dcaron" unicode="&#x10f;" horiz-adv-x="725" 
d="M292 -12q-72 0 -127 34.5t-85.5 94t-30.5 135.5q0 77 30.5 136t86 93.5t127.5 34.5q59 0 104 -23.5t70 -66.5v294h100v-720h-89l-11 78v0q-15 -23 -39 -43.5t-58 -33.5t-78 -13zM308 75q47 0 83 22t55.5 62t19.5 93t-19.5 92.5t-55.5 62t-83 22.5q-45 0 -81 -22.5
t-56 -62t-20 -92.5t20 -93t56 -62t81 -22zM610 544v45q25 0 36.5 9.5t11.5 28.5v20h-48v90h93q6 -27 9 -47t3 -41q0 -54 -27.5 -79.5t-77.5 -25.5z" />
    <glyph glyph-name="Dcroat" unicode="&#x110;" horiz-adv-x="712" 
d="M7 305v88h376v-88h-376zM91 0v700h215q123 0 202.5 -43t118 -121.5t38.5 -186.5t-38.5 -186t-118 -120.5t-202.5 -42.5h-215zM191 84h111q97 0 154 32t81.5 91.5t24.5 141.5q0 83 -24.5 143t-81.5 92t-154 32h-111v-532z" />
    <glyph glyph-name="dcroat" unicode="&#x111;" horiz-adv-x="678" 
d="M326 568v70h317v-70h-317zM292 -12q-72 0 -127 34.5t-85.5 94t-30.5 135.5q0 77 30.5 136t86 93.5t127.5 34.5q59 0 104 -23.5t70 -66.5v294h100v-720h-89l-11 78v0q-15 -23 -39 -43.5t-58 -33.5t-78 -13zM308 75q47 0 83 22t55.5 62t19.5 93t-19.5 92.5t-55.5 62
t-83 22.5q-45 0 -81 -22.5t-56 -62t-20 -92.5t20 -93t56 -62t81 -22z" />
    <glyph glyph-name="Emacron" unicode="&#x112;" horiz-adv-x="571" 
d="M73 0v700h442v-82h-342v-224h312v-80h-312v-232h342v-82h-442zM115 791v73h357v-73h-357z" />
    <glyph glyph-name="emacron" unicode="&#x113;" horiz-adv-x="579" 
d="M296 -12q-72 0 -128 33t-87.5 92t-31.5 137q0 80 31.5 139.5t87.5 93t130 33.5t127 -33t82 -87.5t29 -120.5q0 -10 -0.5 -21.5t-1.5 -25.5h-412v71h314q-3 63 -42 98.5t-97 35.5q-41 0 -75 -18.5t-54.5 -54t-20.5 -89.5v-28q0 -56 20.5 -94.5t54.5 -58t74 -19.5
q48 0 79 21t46 57h100q-13 -46 -44 -82.5t-76.5 -57.5t-104.5 -21zM115 594v73h357v-73h-357z" />
    <glyph glyph-name="Ebreve" unicode="&#x114;" horiz-adv-x="571" 
d="M73 0v700h442v-82h-342v-224h312v-80h-312v-232h342v-82h-442zM295 754q-47 0 -79.5 18t-49.5 49t-17 71v15h56q0 -36 20.5 -56t69.5 -20q48 0 68.5 20t20.5 56h57v-15q0 -40 -17.5 -71t-50 -49t-78.5 -18z" />
    <glyph glyph-name="ebreve" unicode="&#x115;" horiz-adv-x="579" 
d="M296 -12q-72 0 -128 33t-87.5 92t-31.5 137q0 80 31.5 139.5t87.5 93t130 33.5t127 -33t82 -87.5t29 -120.5q0 -10 -0.5 -21.5t-1.5 -25.5h-412v71h314q-3 63 -42 98.5t-97 35.5q-41 0 -75 -18.5t-54.5 -54t-20.5 -89.5v-28q0 -56 20.5 -94.5t54.5 -58t74 -19.5
q48 0 79 21t46 57h100q-13 -46 -44 -82.5t-76.5 -57.5t-104.5 -21zM295 563q-47 0 -79.5 17.5t-49.5 49t-17 70.5v15h56q0 -36 20.5 -56t69.5 -20q48 0 68.5 20t20.5 56h57v-15q0 -39 -17.5 -70.5t-50 -49t-78.5 -17.5z" />
    <glyph glyph-name="Edotaccent" unicode="&#x116;" horiz-adv-x="571" 
d="M73 0v700h442v-82h-342v-224h312v-80h-312v-232h342v-82h-442zM294 765q-22 0 -38 16t-16 38q0 23 16 39t38 16t38.5 -16t16.5 -39q0 -22 -16.5 -38t-38.5 -16z" />
    <glyph glyph-name="edotaccent" unicode="&#x117;" horiz-adv-x="579" 
d="M296 -12q-72 0 -128 33t-87.5 92t-31.5 137q0 80 31.5 139.5t87.5 93t130 33.5t127 -33t82 -87.5t29 -120.5q0 -10 -0.5 -21.5t-1.5 -25.5h-412v71h314q-3 63 -42 98.5t-97 35.5q-41 0 -75 -18.5t-54.5 -54t-20.5 -89.5v-28q0 -56 20.5 -94.5t54.5 -58t74 -19.5
q48 0 79 21t46 57h100q-13 -46 -44 -82.5t-76.5 -57.5t-104.5 -21zM294 571q-22 0 -38 16t-16 38t16 38t38 16t38.5 -16t16.5 -38t-16.5 -38t-38.5 -16z" />
    <glyph glyph-name="Eogonek" unicode="&#x118;" horiz-adv-x="571" 
d="M73 0v700h442v-82h-342v-224h312v-80h-312v-232h342v-82h-442zM439 -206q-33 0 -61 10.5t-45.5 32t-17.5 56.5q0 25 11.5 47.5t39 44.5t74.5 42l50 22l24 -49l-56 -27q-35 -17 -49.5 -34.5t-14.5 -36.5q0 -21 15.5 -33.5t41.5 -12.5q14 0 32 4t35 11v-63
q-17 -6 -37.5 -10t-41.5 -4z" />
    <glyph glyph-name="eogonek" unicode="&#x119;" horiz-adv-x="579" 
d="M296 -12q-72 0 -128 33t-87.5 92t-31.5 137q0 80 31.5 139.5t87.5 93t130 33.5t127 -33t82 -87.5t29 -120.5q0 -10 -0.5 -21.5t-1.5 -25.5h-412v71h314q-3 63 -42 98.5t-97 35.5q-41 0 -75 -18.5t-54.5 -54t-20.5 -89.5v-28q0 -56 20.5 -94.5t54.5 -58t74 -19.5
q48 0 79 21t46 57h100q-13 -46 -44 -82.5t-76.5 -57.5t-104.5 -21zM325 -195q-33 0 -61 10.5t-45.5 32t-17.5 56.5q0 25 11.5 47.5t39 44.5t74.5 42l50 22l24 -49l-56 -27q-35 -17 -49.5 -34.5t-14.5 -36.5q0 -21 15.5 -33.5t41.5 -12.5q14 0 32 4t35 11v-63
q-17 -6 -37.5 -10t-41.5 -4z" />
    <glyph glyph-name="Ecaron" unicode="&#x11a;" horiz-adv-x="571" 
d="M73 0v700h442v-82h-342v-224h312v-80h-312v-232h342v-82h-442zM294 751l-140 82v74l140 -84l141 84v-74z" />
    <glyph glyph-name="ecaron" unicode="&#x11b;" horiz-adv-x="579" 
d="M296 -12q-72 0 -128 33t-87.5 92t-31.5 137q0 80 31.5 139.5t87.5 93t130 33.5t127 -33t82 -87.5t29 -120.5q0 -10 -0.5 -21.5t-1.5 -25.5h-412v71h314q-3 63 -42 98.5t-97 35.5q-41 0 -75 -18.5t-54.5 -54t-20.5 -89.5v-28q0 -56 20.5 -94.5t54.5 -58t74 -19.5
q48 0 79 21t46 57h100q-13 -46 -44 -82.5t-76.5 -57.5t-104.5 -21zM294 563l-140 81v75l140 -85l141 85v-75z" />
    <glyph glyph-name="Gbreve" unicode="&#x11e;" horiz-adv-x="764" 
d="M376 -12q-99 0 -173 45t-115 126t-41 189q0 107 41.5 189t119 128.5t183.5 46.5q119 0 199 -57.5t103 -159.5h-114q-15 58 -63 91.5t-126 33.5q-74 0 -128.5 -33t-83.5 -94t-29 -145q0 -85 29 -146t82 -93t122 -32q106 0 159.5 61t62.5 163h-193v77h294v-378h-91l-9 107
v0q-24 -39 -55.5 -65.5t-73.5 -40t-100 -13.5zM383 754q-47 0 -79.5 18t-49.5 49t-17 71v15h56q0 -36 20.5 -56t69.5 -20q48 0 68.5 20t20.5 56h57v-15q0 -40 -17.5 -71t-50 -49t-78.5 -18z" />
    <glyph glyph-name="gbreve" unicode="&#x11f;" horiz-adv-x="570" 
d="M273 -232q-69 0 -122 17.5t-82 53.5t-29 88q0 27 12 54.5t39 52.5t73 45l56 -45q-51 -19 -68.5 -45.5t-17.5 -51.5q0 -30 18 -50t49.5 -30t71.5 -10q39 0 68 11t45 31t16 47q0 32 -24 53.5t-92 25.5q-57 4 -96.5 11t-67 17t-46 22t-31.5 25v23l100 103l81 -28l-109 -101
l21 45q11 -7 21 -13.5t27 -11.5t46 -9t76 -8q68 -5 109.5 -24t60.5 -51t19 -76q0 -43 -23.5 -82t-73 -64t-127.5 -25zM273 155q-64 0 -108.5 24t-68 65t-23.5 91q0 51 23.5 91.5t68.5 65t108 24.5t107.5 -24.5t68 -65t23.5 -91.5q0 -50 -23.5 -91t-68 -65t-107.5 -24z
M273 235q49 0 78 25.5t29 74.5t-29 74.5t-78 25.5t-79 -25.5t-30 -74.5t30 -74.5t79 -25.5zM355 425l-24 79h207v-69zM273 563q-47 0 -79.5 17.5t-49.5 49t-17 70.5v15h56q0 -36 20.5 -56t69.5 -20q48 0 68.5 20t20.5 56h57v-15q0 -39 -17.5 -70.5t-50 -49t-78.5 -17.5z" />
    <glyph glyph-name="Gdotaccent" unicode="&#x120;" horiz-adv-x="764" 
d="M376 -12q-99 0 -173 45t-115 126t-41 189q0 107 41.5 189t119 128.5t183.5 46.5q119 0 199 -57.5t103 -159.5h-114q-15 58 -63 91.5t-126 33.5q-74 0 -128.5 -33t-83.5 -94t-29 -145q0 -85 29 -146t82 -93t122 -32q106 0 159.5 61t62.5 163h-193v77h294v-378h-91l-9 107
v0q-24 -39 -55.5 -65.5t-73.5 -40t-100 -13.5zM382 765q-22 0 -38 16t-16 38q0 23 16 39t38 16t38.5 -16t16.5 -39q0 -22 -16.5 -38t-38.5 -16z" />
    <glyph glyph-name="gdotaccent" unicode="&#x121;" horiz-adv-x="570" 
d="M273 -232q-69 0 -122 17.5t-82 53.5t-29 88q0 27 12 54.5t39 52.5t73 45l56 -45q-51 -19 -68.5 -45.5t-17.5 -51.5q0 -30 18 -50t49.5 -30t71.5 -10q39 0 68 11t45 31t16 47q0 32 -24 53.5t-92 25.5q-57 4 -96.5 11t-67 17t-46 22t-31.5 25v23l100 103l81 -28l-109 -101
l21 45q11 -7 21 -13.5t27 -11.5t46 -9t76 -8q68 -5 109.5 -24t60.5 -51t19 -76q0 -43 -23.5 -82t-73 -64t-127.5 -25zM273 155q-64 0 -108.5 24t-68 65t-23.5 91q0 51 23.5 91.5t68.5 65t108 24.5t107.5 -24.5t68 -65t23.5 -91.5q0 -50 -23.5 -91t-68 -65t-107.5 -24z
M273 235q49 0 78 25.5t29 74.5t-29 74.5t-78 25.5t-79 -25.5t-30 -74.5t30 -74.5t79 -25.5zM355 425l-24 79h207v-69zM272 571q-22 0 -38 16t-16 38t16 38t38 16t38.5 -16t16.5 -38t-16.5 -38t-38.5 -16z" />
    <glyph glyph-name="uni0122" unicode="&#x122;" horiz-adv-x="764" 
d="M376 -12q-99 0 -173 45t-115 126t-41 189q0 107 41.5 189t119 128.5t183.5 46.5q119 0 199 -57.5t103 -159.5h-114q-15 58 -63 91.5t-126 33.5q-74 0 -128.5 -33t-83.5 -94t-29 -145q0 -85 29 -146t82 -93t122 -32q106 0 159.5 61t62.5 163h-193v77h294v-378h-91l-9 107
v0q-24 -39 -55.5 -65.5t-73.5 -40t-100 -13.5zM331 -251v44q25 0 36 15t11 44v14h-48v86h94q6 -22 8.5 -43t2.5 -39q0 -62 -26.5 -91.5t-77.5 -29.5z" />
    <glyph glyph-name="uni0123" unicode="&#x123;" horiz-adv-x="570" 
d="M273 -232q-69 0 -122 17.5t-82 53.5t-29 88q0 27 12 54.5t39 52.5t73 45l56 -45q-51 -19 -68.5 -45.5t-17.5 -51.5q0 -30 18 -50t49.5 -30t71.5 -10q39 0 68 11t45 31t16 47q0 32 -24 53.5t-92 25.5q-57 4 -96.5 11t-67 17t-46 22t-31.5 25v23l100 103l81 -28l-109 -101
l21 45q11 -7 21 -13.5t27 -11.5t46 -9t76 -8q68 -5 109.5 -24t60.5 -51t19 -76q0 -43 -23.5 -82t-73 -64t-127.5 -25zM273 155q-64 0 -108.5 24t-68 65t-23.5 91q0 51 23.5 91.5t68.5 65t108 24.5t107.5 -24.5t68 -65t23.5 -91.5q0 -50 -23.5 -91t-68 -65t-107.5 -24z
M273 235q49 0 78 25.5t29 74.5t-29 74.5t-78 25.5t-79 -25.5t-30 -74.5t30 -74.5t79 -25.5zM355 425l-24 79h207v-69zM326 758v-44q-25 0 -36.5 -9.5t-11.5 -28.5v-20h48v-90h-93q-6 27 -9 47t-3 41q0 53 27 78.5t78 25.5z" />
    <glyph glyph-name="Hbar" unicode="&#x126;" horiz-adv-x="756" 
d="M36 494v86h684v-86h-684zM551 0v700h100v-700h-100zM106 0v700h100v-700h-100zM189 316v82h383v-82h-383z" />
    <glyph glyph-name="hbar" unicode="&#x127;" horiz-adv-x="630" 
d="M35 568v70h317v-70h-317zM110 0v720h100v-298v0q25 44 69.5 69t98.5 25q60 0 103 -24.5t65.5 -73t22.5 -121.5v-297h-99v286q0 71 -30 107.5t-88 36.5q-40 0 -72.5 -19t-51 -55.5t-18.5 -88.5v-267h-100z" />
    <glyph glyph-name="Itilde" unicode="&#x128;" horiz-adv-x="246" 
d="M73 0v700h100v-700h-100zM187 754q-27 0 -46 12t-35 23.5t-37 11.5q-16 0 -27.5 -11t-14.5 -34h-56q8 55 35.5 82.5t67.5 27.5q27 0 45.5 -11.5t35 -23.5t37.5 -12q17 0 28.5 11.5t14.5 33.5h56q-7 -55 -35 -82.5t-69 -27.5z" />
    <glyph glyph-name="itilde" unicode="&#x129;" horiz-adv-x="237" 
d="M68 0v504h100v-504h-100zM174 570q-27 0 -46 11.5t-35 23t-37 11.5q-16 0 -27.5 -11t-14.5 -34h-56q8 55 35.5 82.5t67.5 27.5q27 0 45.5 -11.5t35 -23.5t37.5 -12q17 0 28.5 11.5t14.5 33.5h56q-7 -54 -35 -81.5t-69 -27.5z" />
    <glyph glyph-name="Imacron" unicode="&#x12a;" horiz-adv-x="246" 
d="M73 0v700h100v-700h-100zM-56 791v73h357v-73h-357z" />
    <glyph glyph-name="imacron" unicode="&#x12b;" horiz-adv-x="237" 
d="M68 0v504h100v-504h-100zM-60 594v73h357v-73h-357z" />
    <glyph glyph-name="Ibreve" unicode="&#x12c;" horiz-adv-x="246" 
d="M73 0v700h100v-700h-100zM123 754q-47 0 -79.5 18t-49.5 49t-17 71v15h56q0 -36 20.5 -56t69.5 -20q48 0 68.5 20t20.5 56h57v-15q0 -40 -17.5 -71t-50 -49t-78.5 -18z" />
    <glyph glyph-name="ibreve" unicode="&#x12d;" horiz-adv-x="237" 
d="M68 0v504h100v-504h-100zM119 563q-47 0 -79.5 17.5t-49.5 49t-17 70.5v15h56q0 -36 20.5 -56t69.5 -20q48 0 68.5 20t20.5 56h57v-15q0 -39 -17.5 -70.5t-50 -49t-78.5 -17.5z" />
    <glyph glyph-name="Iogonek" unicode="&#x12e;" horiz-adv-x="246" 
d="M73 0v700h100v-700h-100zM98 -205q-33 0 -61 10.5t-45.5 32t-17.5 56.5q0 25 11.5 47.5t39 44.5t74.5 42l50 22l24 -49l-56 -27q-35 -17 -49.5 -34.5t-14.5 -36.5q0 -21 15.5 -33.5t41.5 -12.5q14 0 32 4t35 11v-63q-17 -6 -37.5 -10t-41.5 -4z" />
    <glyph glyph-name="iogonek" unicode="&#x12f;" horiz-adv-x="237" 
d="M68 0v504h100v-504h-100zM118 571q-22 0 -38 16t-16 38t16 38t38 16t38.5 -16t16.5 -38t-16.5 -38t-38.5 -16zM93 -206q-33 0 -61 10.5t-45.5 32t-17.5 56.5q0 25 11.5 47.5t39 44.5t74.5 42l50 22l24 -49l-56 -27q-35 -17 -49.5 -34.5t-14.5 -36.5q0 -21 15.5 -33.5
t41.5 -12.5q14 0 32 4t35 11v-63q-17 -6 -37.5 -10t-41.5 -4z" />
    <glyph glyph-name="Idotaccent" unicode="&#x130;" horiz-adv-x="246" 
d="M73 0v700h100v-700h-100zM123 765q-22 0 -38 16t-16 38q0 23 16 39t38 16t38.5 -16t16.5 -39q0 -22 -16.5 -38t-38.5 -16z" />
    <glyph glyph-name="dotlessi" unicode="&#x131;" horiz-adv-x="237" 
d="M68 0v504h100v-504h-100z" />
    <glyph glyph-name="IJ" unicode="&#x132;" horiz-adv-x="721" 
d="M73 0v700h100v-700h-100zM446 -12q-65 0 -112 24.5t-73 71.5t-26 112h101q0 -34 11 -61t34.5 -42.5t62.5 -15.5t61.5 15t32.5 40.5t10 58.5v509h100v-509q0 -97 -54 -150t-148 -53z" />
    <glyph glyph-name="ij" unicode="&#x133;" horiz-adv-x="469" 
d="M75 0v504h100v-504h-100zM126 599q-29 0 -47.5 18t-18.5 46q0 27 18.5 44.5t47.5 17.5q28 0 47 -17.5t19 -44.5q0 -28 -19 -46t-47 -18zM188 -220v85h40q36 0 51 15t15 50v574h100v-576q0 -52 -17.5 -85t-51.5 -48t-82 -15h-55zM345 599q-29 0 -47.5 18t-18.5 46
q0 27 18.5 44.5t47.5 17.5q28 0 46.5 -17.5t18.5 -44.5q0 -28 -18.5 -46t-46.5 -18z" />
    <glyph glyph-name="uni0136" unicode="&#x136;" horiz-adv-x="606" 
d="M73 0v700h100v-304l280 304h125l-260 -278l265 -422h-122l-214 344l-74 -79v-265h-100zM253 -251v44q25 0 36 15t11 44v14h-48v86h94q6 -22 8.5 -43t2.5 -39q0 -62 -26.5 -91.5t-77.5 -29.5z" />
    <glyph glyph-name="uni0137" unicode="&#x137;" horiz-adv-x="527" 
d="M385 0l-232 276l210 228h121l-250 -267v75l277 -312h-126zM68 0v720h100v-720h-100zM213 -251v44q25 0 36 15t11 44v14h-48v86h94q6 -22 8.5 -43t2.5 -39q0 -62 -26.5 -91.5t-77.5 -29.5z" />
    <glyph glyph-name="Lacute" unicode="&#x139;" horiz-adv-x="537" 
d="M73 0v700h100v-621h320v-79h-420zM29 743l-10 70l207 126v0l13 -81z" />
    <glyph glyph-name="lacute" unicode="&#x13a;" horiz-adv-x="237" 
d="M68 0v720h100v-720h-100zM18 764l-10 69l207 127v0l13 -82z" />
    <glyph glyph-name="uni013B" unicode="&#x13b;" horiz-adv-x="537" 
d="M73 0v700h100v-621h320v-79h-420zM252 -251v44q25 0 36 15t11 44v14h-48v86h94q6 -22 8.5 -43t2.5 -39q0 -62 -26.5 -91.5t-77.5 -29.5z" />
    <glyph glyph-name="uni013C" unicode="&#x13c;" horiz-adv-x="237" 
d="M68 0v720h100v-720h-100zM67 -251v44q25 0 36 15t11 44v14h-48v86h94q6 -22 8.5 -43t2.5 -39q0 -62 -26.5 -91.5t-77.5 -29.5z" />
    <glyph glyph-name="Lcaron" unicode="&#x13d;" horiz-adv-x="537" 
d="M73 0v700h100v-621h320v-79h-420zM285 524v45q25 0 36.5 9.5t11.5 28.5v20h-48v90h93q6 -27 9 -47t3 -41q0 -54 -27.5 -79.5t-77.5 -25.5z" />
    <glyph glyph-name="lcaron" unicode="&#x13e;" horiz-adv-x="326" 
d="M68 0v720h100v-720h-100zM211 544v45q25 0 36.5 9.5t11.5 28.5v20h-48v90h93q6 -27 9 -47t3 -41q0 -54 -27.5 -79.5t-77.5 -25.5z" />
    <glyph glyph-name="Ldot" unicode="&#x13f;" horiz-adv-x="537" 
d="M73 0v700h100v-621h320v-79h-420zM366 286q-29 0 -47.5 18.5t-18.5 45.5q0 28 18.5 46t47.5 18t47 -18t18 -46q0 -27 -18 -45.5t-47 -18.5z" />
    <glyph glyph-name="ldot" unicode="&#x140;" horiz-adv-x="389" 
d="M68 0v720h100v-720h-100zM294 273q-29 0 -47.5 18.5t-18.5 45.5q0 28 18.5 46t47.5 18t47 -18t18 -46q0 -27 -18 -45.5t-47 -18.5z" />
    <glyph glyph-name="Lslash" unicode="&#x141;" horiz-adv-x="562" 
d="M21 278v81l292 106v-81zM98 0v700h100v-621h320v-79h-420z" />
    <glyph glyph-name="lslash" unicode="&#x142;" horiz-adv-x="265" 
d="M10 317v82l245 95v-83zM82 0v720h100v-720h-100z" />
    <glyph glyph-name="Nacute" unicode="&#x143;" horiz-adv-x="703" 
d="M73 0v700h100l357 -537v0v537h100v-700h-100l-357 536v0v-536h-100zM252 743l-10 70l207 126v0l13 -81z" />
    <glyph glyph-name="nacute" unicode="&#x144;" horiz-adv-x="587" 
d="M68 0v504h90l6 -86v0q24 45 68 71.5t101 26.5q60 0 103 -24t67 -72.5t24 -121.5v-298h-100v288q0 70 -31 106t-90 36q-39 0 -70 -18.5t-49.5 -54.5t-18.5 -88v-269h-100zM212 547l-10 69l207 127v0l13 -82z" />
    <glyph glyph-name="uni0145" unicode="&#x145;" horiz-adv-x="703" 
d="M73 0v700h100l357 -537v0v537h100v-700h-100l-357 536v0v-536h-100zM301 -251v44q25 0 36 15t11 44v14h-48v86h94q6 -22 8.5 -43t2.5 -39q0 -62 -26.5 -91.5t-77.5 -29.5z" />
    <glyph glyph-name="uni0146" unicode="&#x146;" horiz-adv-x="587" 
d="M68 0v504h90l6 -86v0q24 45 68 71.5t101 26.5q60 0 103 -24t67 -72.5t24 -121.5v-298h-100v288q0 70 -31 106t-90 36q-39 0 -70 -18.5t-49.5 -54.5t-18.5 -88v-269h-100zM242 -251v44q25 0 36 15t11 44v14h-48v86h94q6 -22 8.5 -43t2.5 -39q0 -62 -26.5 -91.5
t-77.5 -29.5z" />
    <glyph glyph-name="Ncaron" unicode="&#x147;" horiz-adv-x="703" 
d="M73 0v700h100l357 -537v0v537h100v-700h-100l-357 536v0v-536h-100zM351 751l-140 82v74l140 -84l141 84v-74z" />
    <glyph glyph-name="ncaron" unicode="&#x148;" horiz-adv-x="587" 
d="M68 0v504h90l6 -86v0q24 45 68 71.5t101 26.5q60 0 103 -24t67 -72.5t24 -121.5v-298h-100v288q0 70 -31 106t-90 36q-39 0 -70 -18.5t-49.5 -54.5t-18.5 -88v-269h-100zM312 563l-140 81v75l140 -85l141 85v-75z" />
    <glyph glyph-name="Eng" unicode="&#x14a;" horiz-adv-x="703" 
d="M73 0v700h100l357 -537v0v537h100v-772q0 -52 -17.5 -85t-51.5 -48t-82 -15h-55v85h39q37 0 52 15t15 49v71l-357 536v0v-536h-100z" />
    <glyph glyph-name="eng" unicode="&#x14b;" horiz-adv-x="585" 
d="M68 0v504h90l6 -86v0q24 45 68 71.5t102 26.5q59 0 102 -24t67 -72.5t24 -121.5v-370q0 -52 -18 -85t-51.5 -48t-82.5 -15h-54v85h39q36 0 51.5 15t15.5 50v358q0 70 -31 106t-90 36q-39 0 -70 -18.5t-49.5 -54.5t-18.5 -88v-269h-100z" />
    <glyph glyph-name="Omacron" unicode="&#x14c;" horiz-adv-x="777" 
d="M388 -12q-101 0 -177.5 45.5t-120 127t-43.5 189.5q0 107 43.5 188.5t120 127.5t177.5 46q103 0 180 -46t119.5 -127.5t42.5 -188.5q0 -108 -42.5 -189.5t-119.5 -127t-180 -45.5zM389 77q72 0 126 33t83.5 94t29.5 146t-29.5 146t-83.5 93.5t-126 32.5t-126 -32.5
t-84 -93.5t-30 -146t30 -146t84 -94t126 -33zM210 791v73h357v-73h-357z" />
    <glyph glyph-name="omacron" unicode="&#x14d;" horiz-adv-x="599" 
d="M298 -12q-71 0 -127.5 33t-89 92.5t-32.5 137.5q0 80 33 139.5t90 92.5t128 33q72 0 128 -33t88.5 -92t32.5 -139t-32.5 -139t-89.5 -92t-129 -33zM298 74q41 0 74.5 20t54 59.5t20.5 98.5t-20 98.5t-53.5 59.5t-73.5 20t-74 -20t-54.5 -59.5t-20.5 -98.5t20.5 -98.5
t54 -59.5t72.5 -20zM121 594v73h357v-73h-357z" />
    <glyph glyph-name="Obreve" unicode="&#x14e;" horiz-adv-x="777" 
d="M388 -12q-101 0 -177.5 45.5t-120 127t-43.5 189.5q0 107 43.5 188.5t120 127.5t177.5 46q103 0 180 -46t119.5 -127.5t42.5 -188.5q0 -108 -42.5 -189.5t-119.5 -127t-180 -45.5zM389 77q72 0 126 33t83.5 94t29.5 146t-29.5 146t-83.5 93.5t-126 32.5t-126 -32.5
t-84 -93.5t-30 -146t30 -146t84 -94t126 -33zM389 754q-47 0 -79.5 18t-49.5 49t-17 71v15h56q0 -36 20.5 -56t69.5 -20q48 0 68.5 20t20.5 56h57v-15q0 -40 -17.5 -71t-50 -49t-78.5 -18z" />
    <glyph glyph-name="obreve" unicode="&#x14f;" horiz-adv-x="599" 
d="M298 -12q-71 0 -127.5 33t-89 92.5t-32.5 137.5q0 80 33 139.5t90 92.5t128 33q72 0 128 -33t88.5 -92t32.5 -139t-32.5 -139t-89.5 -92t-129 -33zM298 74q41 0 74.5 20t54 59.5t20.5 98.5t-20 98.5t-53.5 59.5t-73.5 20t-74 -20t-54.5 -59.5t-20.5 -98.5t20.5 -98.5
t54 -59.5t72.5 -20zM300 563q-47 0 -79.5 17.5t-49.5 49t-17 70.5v15h56q0 -36 20.5 -56t69.5 -20q48 0 68.5 20t20.5 56h57v-15q0 -39 -17.5 -70.5t-50 -49t-78.5 -17.5z" />
    <glyph glyph-name="Ohungarumlaut" unicode="&#x150;" horiz-adv-x="777" 
d="M388 -12q-101 0 -177.5 45.5t-120 127t-43.5 189.5q0 107 43.5 188.5t120 127.5t177.5 46q103 0 180 -46t119.5 -127.5t42.5 -188.5q0 -108 -42.5 -189.5t-119.5 -127t-180 -45.5zM389 77q72 0 126 33t83.5 94t29.5 146t-29.5 146t-83.5 93.5t-126 32.5t-126 -32.5
t-84 -93.5t-30 -146t30 -146t84 -94t126 -33zM424 751l75 160h85l-95 -160h-65zM269 751l68 160h84l-86 -160h-66z" />
    <glyph glyph-name="ohungarumlaut" unicode="&#x151;" horiz-adv-x="599" 
d="M298 -12q-71 0 -127.5 33t-89 92.5t-32.5 137.5q0 80 33 139.5t90 92.5t128 33q72 0 128 -33t88.5 -92t32.5 -139t-32.5 -139t-89.5 -92t-129 -33zM298 74q41 0 74.5 20t54 59.5t20.5 98.5t-20 98.5t-53.5 59.5t-73.5 20t-74 -20t-54.5 -59.5t-20.5 -98.5t20.5 -98.5
t54 -59.5t72.5 -20zM335 555l75 160h85l-95 -160h-65zM180 555l68 160h84l-86 -160h-66z" />
    <glyph glyph-name="OE" unicode="&#x152;" horiz-adv-x="1109" 
d="M387 -12q-72 0 -134.5 26t-108.5 74.5t-71.5 114.5t-25.5 147q0 80 25.5 146.5t71.5 114.5t108 74.5t135 26.5q76 0 140.5 -31t106.5 -89v108h419v-82h-319v-224h289v-80h-289v-232h319v-82h-419v106q-28 -38 -66.5 -64.5t-84 -40t-96.5 -13.5zM391 77q69 0 123.5 33
t86.5 94t32 146t-32 146t-86.5 93.5t-123.5 32.5q-68 0 -123 -32.5t-87 -93.5t-32 -146t32 -146t87 -94t123 -33z" />
    <glyph glyph-name="oe" unicode="&#x153;" horiz-adv-x="978" 
d="M298 -12q-71 0 -127.5 33t-89 92t-32.5 139q0 79 33 138.5t90 92.5t128 33q65 0 115.5 -27.5t79.5 -77.5q32 50 84 77.5t118 27.5q74 0 127.5 -33t82 -87.5t28.5 -120.5q0 -10 -0.5 -21.5t-1.5 -25.5h-387q3 -51 24 -86t54 -53t71 -18q52 0 84.5 24t47.5 65h98
q-12 -49 -43 -88t-78 -61.5t-108 -22.5q-65 0 -117 27.5t-84 77.5q-30 -50 -81 -77.5t-116 -27.5zM298 74q41 0 74.5 20t54 59.5t20.5 98.5t-20 98.5t-53.5 59.5t-73.5 20t-74 -20t-54.5 -59.5t-20.5 -98.5t20.5 -98.5t54 -59.5t72.5 -20zM549 299h286q-3 63 -42 98.5
t-98 35.5q-36 0 -67.5 -15t-52.5 -45t-26 -74z" />
    <glyph glyph-name="Racute" unicode="&#x154;" horiz-adv-x="606" 
d="M73 0v700h237q83 0 136 -28t78.5 -74.5t25.5 -105.5q0 -56 -25.5 -103.5t-79.5 -76t-138 -28.5h-134v-284h-100zM441 0l-151 311h110l157 -311h-116zM173 360h130q74 0 109 36.5t35 93.5q0 58 -34 92t-110 34h-130v-256zM195 743l-10 70l207 126v0l13 -81z" />
    <glyph glyph-name="racute" unicode="&#x155;" horiz-adv-x="382" 
d="M68 0v504h90l9 -95v0q17 34 44 57.5t63.5 36.5t83.5 13v-106h-36q-31 0 -59 -7.5t-49.5 -25.5t-33.5 -49t-12 -77v-251h-100zM127 547l-10 69l207 127v0l13 -82z" />
    <glyph glyph-name="uni0156" unicode="&#x156;" horiz-adv-x="606" 
d="M73 0v700h237q83 0 136 -28t78.5 -74.5t25.5 -105.5q0 -56 -25.5 -103.5t-79.5 -76t-138 -28.5h-134v-284h-100zM441 0l-151 311h110l157 -311h-116zM173 360h130q74 0 109 36.5t35 93.5q0 58 -34 92t-110 34h-130v-256zM244 -251v44q25 0 36 15t11 44v14h-48v86h94
q6 -22 8.5 -43t2.5 -39q0 -62 -26.5 -91.5t-77.5 -29.5z" />
    <glyph glyph-name="uni0157" unicode="&#x157;" horiz-adv-x="382" 
d="M68 0v504h90l9 -95v0q17 34 44 57.5t63.5 36.5t83.5 13v-106h-36q-31 0 -59 -7.5t-49.5 -25.5t-33.5 -49t-12 -77v-251h-100zM67 -251v44q25 0 36 15t11 44v14h-48v86h94q6 -22 8.5 -43t2.5 -39q0 -62 -26.5 -91.5t-77.5 -29.5z" />
    <glyph glyph-name="Rcaron" unicode="&#x158;" horiz-adv-x="606" 
d="M73 0v700h237q83 0 136 -28t78.5 -74.5t25.5 -105.5q0 -56 -25.5 -103.5t-79.5 -76t-138 -28.5h-134v-284h-100zM441 0l-151 311h110l157 -311h-116zM173 360h130q74 0 109 36.5t35 93.5q0 58 -34 92t-110 34h-130v-256zM295 751l-140 82v74l140 -84l141 84v-74z" />
    <glyph glyph-name="rcaron" unicode="&#x159;" horiz-adv-x="382" 
d="M68 0v504h90l9 -95v0q17 34 44 57.5t63.5 36.5t83.5 13v-106h-36q-31 0 -59 -7.5t-49.5 -25.5t-33.5 -49t-12 -77v-251h-100zM227 563l-140 81v75l140 -85l141 85v-75z" />
    <glyph glyph-name="Sacute" unicode="&#x15a;" horiz-adv-x="587" 
d="M302 -12q-77 0 -135 27.5t-90 77.5t-32 117h105q1 -38 18.5 -69.5t51 -50t82.5 -18.5q42 0 72.5 14t46.5 38.5t16 56.5q0 37 -17 61t-45.5 39.5t-66 27.5t-78.5 26q-83 27 -123.5 70t-40.5 112q0 59 28 102.5t78.5 68t119.5 24.5q68 0 119 -25t80 -69t29 -103h-106
q0 27 -14 53t-42 42.5t-69 16.5q-34 1 -61 -11t-42 -35t-15 -55t13.5 -51.5t39.5 -33.5t60.5 -25.5l76.5 -25.5q52 -17 92.5 -41.5t64 -63t23.5 -98.5q0 -52 -27 -97t-80 -73.5t-132 -28.5zM192 743l-10 70l207 126v0l13 -81z" />
    <glyph glyph-name="sacute" unicode="&#x15b;" horiz-adv-x="511" 
d="M263 -12q-64 0 -112 21t-76 59t-34 89h102q5 -24 19.5 -44t40 -32t60.5 -12q33 0 54.5 9.5t31.5 26t10 35.5q0 28 -13.5 42.5t-40 23t-63.5 15.5q-35 6 -67.5 16.5t-58 26.5t-40.5 40.5t-15 60.5q0 43 23 77.5t65.5 54t100.5 19.5q84 0 135 -40t60 -113h-97
q-4 34 -30 52.5t-69 18.5t-66 -17t-23 -45q0 -18 13 -32t38.5 -23.5t62.5 -17.5q53 -10 95 -25t67 -44t25 -83q1 -47 -23.5 -83t-69 -56t-105.5 -20zM154 547l-10 69l207 127v0l13 -82z" />
    <glyph glyph-name="Scedilla" unicode="&#x15e;" horiz-adv-x="587" 
d="M302 -12q-77 0 -135 27.5t-90 77.5t-32 117h105q1 -38 18.5 -69.5t51 -50t82.5 -18.5q42 0 72.5 14t46.5 38.5t16 56.5q0 37 -17 61t-45.5 39.5t-66 27.5t-78.5 26q-83 27 -123.5 70t-40.5 112q0 59 28 102.5t78.5 68t119.5 24.5q68 0 119 -25t80 -69t29 -103h-106
q0 27 -14 53t-42 42.5t-69 16.5q-34 1 -61 -11t-42 -35t-15 -55t13.5 -51.5t39.5 -33.5t60.5 -25.5l76.5 -25.5q52 -17 92.5 -41.5t64 -63t23.5 -98.5q0 -52 -27 -97t-80 -73.5t-132 -28.5zM226 -262v60h99q32 0 47.5 11t15.5 33q0 21 -15.5 31t-47.5 10h-53v122h65v-65
q36 1 65.5 -10t46.5 -33.5t17 -56.5q0 -32 -16.5 -55t-44.5 -35t-63 -12h-116z" />
    <glyph glyph-name="scedilla" unicode="&#x15f;" horiz-adv-x="511" 
d="M263 -12q-64 0 -112 21t-76 59t-34 89h102q5 -24 19.5 -44t40 -32t60.5 -12q33 0 54.5 9.5t31.5 26t10 35.5q0 28 -13.5 42.5t-40 23t-63.5 15.5q-35 6 -67.5 16.5t-58 26.5t-40.5 40.5t-15 60.5q0 43 23 77.5t65.5 54t100.5 19.5q84 0 135 -40t60 -113h-97
q-4 34 -30 52.5t-69 18.5t-66 -17t-23 -45q0 -18 13 -32t38.5 -23.5t62.5 -17.5q53 -10 95 -25t67 -44t25 -83q1 -47 -23.5 -83t-69 -56t-105.5 -20zM181 -262v60h99q32 0 47.5 11t15.5 33q0 21 -15.5 31t-47.5 10h-53v122h65v-65q36 1 65.5 -10t46.5 -33.5t17 -56.5
q0 -32 -16.5 -55t-44.5 -35t-63 -12h-116z" />
    <glyph glyph-name="Scaron" unicode="&#x160;" horiz-adv-x="587" 
d="M302 -12q-77 0 -135 27.5t-90 77.5t-32 117h105q1 -38 18.5 -69.5t51 -50t82.5 -18.5q42 0 72.5 14t46.5 38.5t16 56.5q0 37 -17 61t-45.5 39.5t-66 27.5t-78.5 26q-83 27 -123.5 70t-40.5 112q0 59 28 102.5t78.5 68t119.5 24.5q68 0 119 -25t80 -69t29 -103h-106
q0 27 -14 53t-42 42.5t-69 16.5q-34 1 -61 -11t-42 -35t-15 -55t13.5 -51.5t39.5 -33.5t60.5 -25.5l76.5 -25.5q52 -17 92.5 -41.5t64 -63t23.5 -98.5q0 -52 -27 -97t-80 -73.5t-132 -28.5zM291 751l-140 82v74l140 -84l141 84v-74z" />
    <glyph glyph-name="scaron" unicode="&#x161;" horiz-adv-x="511" 
d="M263 -12q-64 0 -112 21t-76 59t-34 89h102q5 -24 19.5 -44t40 -32t60.5 -12q33 0 54.5 9.5t31.5 26t10 35.5q0 28 -13.5 42.5t-40 23t-63.5 15.5q-35 6 -67.5 16.5t-58 26.5t-40.5 40.5t-15 60.5q0 43 23 77.5t65.5 54t100.5 19.5q84 0 135 -40t60 -113h-97
q-4 34 -30 52.5t-69 18.5t-66 -17t-23 -45q0 -18 13 -32t38.5 -23.5t62.5 -17.5q53 -10 95 -25t67 -44t25 -83q1 -47 -23.5 -83t-69 -56t-105.5 -20zM254 563l-140 81v75l140 -85l141 85v-75z" />
    <glyph glyph-name="uni0162" unicode="&#x162;" horiz-adv-x="572" 
d="M236 0v618h-207v82h515v-82h-208v-618h-100zM211 -262v60h99q32 0 47.5 11t15.5 33q0 21 -15.5 31t-47.5 10h-53v122h65v-65q36 1 65.5 -10t46.5 -33.5t17 -56.5q0 -32 -16.5 -55t-44.5 -35t-63 -12h-116z" />
    <glyph glyph-name="uni0163" unicode="&#x163;" horiz-adv-x="405" 
d="M275 0q-47 0 -82 15t-54 50t-19 95v259h-87v85h87l12 126h88v-126h143v-85h-143v-260q0 -43 18 -58.5t62 -15.5h58v-85h-83zM183 -262v60h99q32 0 47.5 11t15.5 33q0 21 -15.5 31t-47.5 10h-53v122h65v-65q36 1 65.5 -10t46.5 -33.5t17 -56.5q0 -32 -16.5 -55t-44.5 -35
t-63 -12h-116z" />
    <glyph glyph-name="Tcaron" unicode="&#x164;" horiz-adv-x="572" 
d="M236 0v618h-207v82h515v-82h-208v-618h-100zM286 751l-140 82v74l140 -84l140 84v-74z" />
    <glyph glyph-name="tcaron" unicode="&#x165;" horiz-adv-x="405" 
d="M275 0q-47 0 -82 15t-54 50t-19 95v259h-87v85h87l12 126h88v-126h143v-85h-143v-260q0 -43 18 -58.5t62 -15.5h58v-85h-83zM280 549v45q25 0 36.5 9.5t11.5 28.5v20h-48v90h93q6 -27 9 -47t3 -41q0 -54 -27.5 -79.5t-77.5 -25.5z" />
    <glyph glyph-name="Utilde" unicode="&#x168;" horiz-adv-x="665" 
d="M331 -12q-74 0 -134 29.5t-95.5 90t-35.5 154.5v438h100v-439q0 -63 21 -103.5t58.5 -60t87.5 -19.5q51 0 88 19.5t57.5 60t20.5 103.5v439h100v-438q0 -94 -36 -154.5t-97 -90t-135 -29.5zM396 754q-27 0 -46 12t-35 23.5t-37 11.5q-16 0 -27.5 -11t-14.5 -34h-56
q8 55 35.5 82.5t67.5 27.5q27 0 45.5 -11.5t35 -23.5t37.5 -12q17 0 28.5 11.5t14.5 33.5h56q-7 -55 -35 -82.5t-69 -27.5z" />
    <glyph glyph-name="utilde" unicode="&#x169;" horiz-adv-x="587" 
d="M253 -12q-59 0 -102.5 24t-67 72t-23.5 121v299h100v-288q0 -71 31 -107t89 -36q39 0 70.5 19t49.5 55t18 88v269h100v-504h-89l-7 86v0q-23 -46 -67 -72t-102 -26zM344 570q-27 0 -46 11.5t-35 23t-37 11.5q-16 0 -27.5 -11t-14.5 -34h-56q8 55 35.5 82.5t67.5 27.5
q27 0 45.5 -11.5t35 -23.5t37.5 -12q17 0 28.5 11.5t14.5 33.5h56q-7 -54 -35 -81.5t-69 -27.5z" />
    <glyph glyph-name="Umacron" unicode="&#x16a;" horiz-adv-x="665" 
d="M331 -12q-74 0 -134 29.5t-95.5 90t-35.5 154.5v438h100v-439q0 -63 21 -103.5t58.5 -60t87.5 -19.5q51 0 88 19.5t57.5 60t20.5 103.5v439h100v-438q0 -94 -36 -154.5t-97 -90t-135 -29.5zM153 791v73h357v-73h-357z" />
    <glyph glyph-name="umacron" unicode="&#x16b;" horiz-adv-x="587" 
d="M253 -12q-59 0 -102.5 24t-67 72t-23.5 121v299h100v-288q0 -71 31 -107t89 -36q39 0 70.5 19t49.5 55t18 88v269h100v-504h-89l-7 86v0q-23 -46 -67 -72t-102 -26zM109 594v73h357v-73h-357z" />
    <glyph glyph-name="Ubreve" unicode="&#x16c;" horiz-adv-x="665" 
d="M331 -12q-74 0 -134 29.5t-95.5 90t-35.5 154.5v438h100v-439q0 -63 21 -103.5t58.5 -60t87.5 -19.5q51 0 88 19.5t57.5 60t20.5 103.5v439h100v-438q0 -94 -36 -154.5t-97 -90t-135 -29.5zM332 754q-47 0 -79.5 18t-49.5 49t-17 71v15h56q0 -36 20.5 -56t69.5 -20
q48 0 68.5 20t20.5 56h57v-15q0 -40 -17.5 -71t-50 -49t-78.5 -18z" />
    <glyph glyph-name="ubreve" unicode="&#x16d;" horiz-adv-x="587" 
d="M253 -12q-59 0 -102.5 24t-67 72t-23.5 121v299h100v-288q0 -71 31 -107t89 -36q39 0 70.5 19t49.5 55t18 88v269h100v-504h-89l-7 86v0q-23 -46 -67 -72t-102 -26zM288 563q-47 0 -79.5 17.5t-49.5 49t-17 70.5v15h56q0 -36 20.5 -56t69.5 -20q48 0 68.5 20t20.5 56h57
v-15q0 -39 -17.5 -70.5t-50 -49t-78.5 -17.5z" />
    <glyph glyph-name="Uring" unicode="&#x16e;" horiz-adv-x="665" 
d="M331 -12q-74 0 -134 29.5t-95.5 90t-35.5 154.5v438h100v-439q0 -63 21 -103.5t58.5 -60t87.5 -19.5q51 0 88 19.5t57.5 60t20.5 103.5v439h100v-438q0 -94 -36 -154.5t-97 -90t-135 -29.5zM331 757q-44 0 -76 28.5t-32 78.5q0 49 32 77.5t76 28.5q45 0 76.5 -28.5
t31.5 -77.5q0 -50 -31.5 -78.5t-76.5 -28.5zM331 806q23 0 39 16t16 42q0 27 -16 42t-39 15q-22 0 -38.5 -15t-16.5 -42q0 -26 16.5 -42t38.5 -16z" />
    <glyph glyph-name="uring" unicode="&#x16f;" horiz-adv-x="587" 
d="M253 -12q-59 0 -102.5 24t-67 72t-23.5 121v299h100v-288q0 -71 31 -107t89 -36q39 0 70.5 19t49.5 55t18 88v269h100v-504h-89l-7 86v0q-23 -46 -67 -72t-102 -26zM287 570q-44 0 -76 28t-32 78q0 49 32 77.5t76 28.5q45 0 76.5 -28.5t31.5 -77.5q0 -50 -31.5 -78
t-76.5 -28zM287 618q23 0 39 16t16 42q0 27 -16 42t-39 15q-22 0 -38.5 -15t-16.5 -42q0 -26 16.5 -42t38.5 -16z" />
    <glyph glyph-name="Uhungarumlaut" unicode="&#x170;" horiz-adv-x="665" 
d="M331 -12q-74 0 -134 29.5t-95.5 90t-35.5 154.5v438h100v-439q0 -63 21 -103.5t58.5 -60t87.5 -19.5q51 0 88 19.5t57.5 60t20.5 103.5v439h100v-438q0 -94 -36 -154.5t-97 -90t-135 -29.5zM367 751l75 160h85l-95 -160h-65zM212 751l68 160h84l-86 -160h-66z" />
    <glyph glyph-name="uhungarumlaut" unicode="&#x171;" horiz-adv-x="587" 
d="M253 -12q-59 0 -102.5 24t-67 72t-23.5 121v299h100v-288q0 -71 31 -107t89 -36q39 0 70.5 19t49.5 55t18 88v269h100v-504h-89l-7 86v0q-23 -46 -67 -72t-102 -26zM323 555l75 160h85l-95 -160h-65zM168 555l68 160h84l-86 -160h-66z" />
    <glyph glyph-name="Uogonek" unicode="&#x172;" horiz-adv-x="665" 
d="M331 -12q-74 0 -134 29.5t-95.5 90t-35.5 154.5v438h100v-439q0 -63 21 -103.5t58.5 -60t87.5 -19.5q51 0 88 19.5t57.5 60t20.5 103.5v439h100v-438q0 -94 -36 -154.5t-97 -90t-135 -29.5zM331 -206q-33 0 -61 10.5t-45.5 32t-17.5 56.5q0 25 11.5 47.5t39 44.5t74.5 42
l50 22l24 -49l-56 -27q-36 -17 -50 -34.5t-14 -36.5q0 -21 15.5 -33.5t41.5 -12.5q14 0 32 4t35 11v-63q-17 -6 -38 -10t-41 -4z" />
    <glyph glyph-name="uogonek" unicode="&#x173;" horiz-adv-x="587" 
d="M253 -12q-59 0 -102.5 24t-67 72t-23.5 121v299h100v-288q0 -71 31 -107t89 -36q39 0 70.5 19t49.5 55t18 88v269h100v-504h-89l-7 86v0q-23 -46 -67 -72t-102 -26zM444 -206q-33 0 -61 10.5t-45.5 32t-17.5 56.5q0 25 11.5 47.5t39 44.5t74.5 42l50 22l24 -49l-56 -27
q-35 -17 -49.5 -34.5t-14.5 -36.5q0 -21 15.5 -33.5t41.5 -12.5q14 0 32 4t35 11v-63q-17 -6 -37.5 -10t-41.5 -4z" />
    <glyph glyph-name="Wcircumflex" unicode="&#x174;" horiz-adv-x="984" 
d="M216 0l-190 700h107l142 -583v0l163 583h111l158 -585v0l144 585h107l-193 -700h-117l-157 557v0l-161 -557h-114zM353 752v75l140 81l141 -81v-75l-141 84z" />
    <glyph glyph-name="wcircumflex" unicode="&#x175;" horiz-adv-x="781" 
d="M170 0l-148 504h99l110 -420l-19 1l122 419h112l122 -419l-19 -1l109 420h101l-148 -504h-103l-128 437h20l-128 -437h-102zM250 550v75l140 81l141 -81v-75l-141 83z" />
    <glyph glyph-name="Ycircumflex" unicode="&#x176;" horiz-adv-x="597" 
d="M249 0v260l-231 440h113l181 -368h-25l180 368h112l-230 -440v-260h-100zM159 752v75l140 81l141 -81v-75l-141 84z" />
    <glyph glyph-name="ycircumflex" unicode="&#x177;" horiz-adv-x="571" 
d="M126 -220l123 276h-29l-199 448h108l158 -366v0l159 366h105l-320 -724h-105zM146 550v75l140 81l141 -81v-75l-141 83z" />
    <glyph glyph-name="Ydieresis" unicode="&#x178;" horiz-adv-x="597" 
d="M249 0v260l-231 440h113l181 -368h-25l180 368h112l-230 -440v-260h-100zM216 773q-23 0 -38.5 15.5t-15.5 38.5q0 22 15.5 38t38.5 16q22 0 38.5 -16t16.5 -38q0 -23 -16.5 -38.5t-38.5 -15.5zM384 773q-23 0 -39 15.5t-16 38.5q0 22 16 38t39 16q22 0 37.5 -16
t15.5 -38q0 -23 -15.5 -38.5t-37.5 -15.5z" />
    <glyph glyph-name="Zacute" unicode="&#x179;" horiz-adv-x="552" 
d="M46 0v78l341 537h-337v85h453v-78l-342 -537h345v-85h-460zM176 743l-10 70l207 126v0l13 -81z" />
    <glyph glyph-name="zacute" unicode="&#x17a;" horiz-adv-x="468" 
d="M35 0v81l271 339h-267v84h381v-82l-272 -339h277v-83h-390zM133 547l-10 69l207 127v0l13 -82z" />
    <glyph glyph-name="Zdotaccent" unicode="&#x17b;" horiz-adv-x="552" 
d="M46 0v78l341 537h-337v85h453v-78l-342 -537h345v-85h-460zM276 765q-22 0 -38 16t-16 38q0 23 16 39t38 16t38.5 -16t16.5 -39q0 -22 -16.5 -38t-38.5 -16z" />
    <glyph glyph-name="zdotaccent" unicode="&#x17c;" horiz-adv-x="468" 
d="M35 0v81l271 339h-267v84h381v-82l-272 -339h277v-83h-390zM232 571q-22 0 -38 16t-16 38t16 38t38 16t38.5 -16t16.5 -38t-16.5 -38t-38.5 -16z" />
    <glyph glyph-name="Zcaron" unicode="&#x17d;" horiz-adv-x="552" 
d="M46 0v78l341 537h-337v85h453v-78l-342 -537h345v-85h-460zM276 751l-140 82v74l140 -84l141 84v-74z" />
    <glyph glyph-name="zcaron" unicode="&#x17e;" horiz-adv-x="468" 
d="M35 0v81l271 339h-267v84h381v-82l-272 -339h277v-83h-390zM233 563l-140 81v75l140 -85l141 85v-75z" />
    <glyph glyph-name="uni018F" unicode="&#x18f;" horiz-adv-x="749" 
d="M370 -12q-74 0 -133.5 23t-102 67t-65 105t-22.5 137q0 14 1 28.5t2 30.5h564v-80h-460q0 -69 27 -118.5t75.5 -76t113.5 -26.5q46 0 87 15.5t72 46t48 75.5t17 104v44q0 83 -29 141t-79.5 88t-113.5 30q-75 0 -128.5 -35.5t-74.5 -101.5h-113q20 68 63.5 119t108 79.5
t144.5 28.5q98 0 172.5 -45.5t116 -127.5t41.5 -191q0 -108 -41.5 -189t-116.5 -126t-174 -45z" />
    <glyph glyph-name="florin" unicode="&#x192;" horiz-adv-x="334" 
d="M-47 -205l7 84h23q28 0 42 13.5t18 48.5l69 652q9 92 64.5 134t158.5 42l-7 -84q-56 0 -83.5 -21.5t-32.5 -70.5l-69 -652q-6 -52 -26 -84.5t-55 -47t-84 -14.5h-25zM30 467l7 83h283l-7 -83h-283z" />
    <glyph glyph-name="AEacute" unicode="&#x1fc;" horiz-adv-x="922" 
d="M28 0l391 700h447v-80h-283v-227h253v-78h-253v-235h283v-80h-383v620v0l-346 -620h-109zM166 151l42 79h322v-79h-364zM464 743l-10 70l207 126v0l13 -81z" />
    <glyph glyph-name="aeacute" unicode="&#x1fd;" horiz-adv-x="924" 
d="M239 -12q-62 0 -104 21t-63 56.5t-21 77.5q0 49 25.5 84.5t72.5 54t114 18.5h134q0 45 -12.5 74t-38 43.5t-62.5 14.5q-42 0 -73.5 -21.5t-39.5 -63.5h-100q5 54 35.5 91.5t77 57.5t100.5 20q63 0 108 -22t70 -62q33 40 80 62t103 22q73 0 125.5 -33t81 -87t28.5 -120
v-21.5t-2 -24.5h-379q2 -53 22.5 -88t53 -53t68.5 -18q51 0 82.5 24t46.5 65h98q-12 -49 -43 -88t-77 -61.5t-106 -22.5q-66 0 -119 30t-85 82q-20 -32 -49 -57.5t-66.5 -40t-85.5 -14.5zM251 69q40 0 70.5 20.5t50 54.5t23.5 74v12h-121q-42 0 -68 -10t-38 -28t-12 -42
t11.5 -42t33 -28.5t50.5 -10.5zM500 300h281q-4 63 -42.5 98t-93.5 35q-35 0 -66.5 -15.5t-52.5 -44.5t-26 -73zM362 547l-10 69l207 127v0l13 -82z" />
    <glyph glyph-name="uni0218" unicode="&#x218;" horiz-adv-x="587" 
d="M302 -12q-77 0 -135 27.5t-90 77.5t-32 117h105q1 -38 18.5 -69.5t51 -50t82.5 -18.5q42 0 72.5 14t46.5 38.5t16 56.5q0 37 -17 61t-45.5 39.5t-66 27.5t-78.5 26q-83 27 -123.5 70t-40.5 112q0 59 28 102.5t78.5 68t119.5 24.5q68 0 119 -25t80 -69t29 -103h-106
q0 27 -14 53t-42 42.5t-69 16.5q-34 1 -61 -11t-42 -35t-15 -55t13.5 -51.5t39.5 -33.5t60.5 -25.5l76.5 -25.5q52 -17 92.5 -41.5t64 -63t23.5 -98.5q0 -52 -27 -97t-80 -73.5t-132 -28.5zM249 -251v44q25 0 36 15t11 44v14h-48v86h94q6 -22 8.5 -43t2.5 -39
q0 -62 -26.5 -91.5t-77.5 -29.5z" />
    <glyph glyph-name="uni0219" unicode="&#x219;" horiz-adv-x="511" 
d="M263 -12q-64 0 -112 21t-76 59t-34 89h102q5 -24 19.5 -44t40 -32t60.5 -12q33 0 54.5 9.5t31.5 26t10 35.5q0 28 -13.5 42.5t-40 23t-63.5 15.5q-35 6 -67.5 16.5t-58 26.5t-40.5 40.5t-15 60.5q0 43 23 77.5t65.5 54t100.5 19.5q84 0 135 -40t60 -113h-97
q-4 34 -30 52.5t-69 18.5t-66 -17t-23 -45q0 -18 13 -32t38.5 -23.5t62.5 -17.5q53 -10 95 -25t67 -44t25 -83q1 -47 -23.5 -83t-69 -56t-105.5 -20zM204 -251v44q25 0 36 15t11 44v14h-48v86h94q6 -22 8.5 -43t2.5 -39q0 -62 -26.5 -91.5t-77.5 -29.5z" />
    <glyph glyph-name="uni021A" unicode="&#x21a;" horiz-adv-x="572" 
d="M236 0v618h-207v82h515v-82h-208v-618h-100zM234 -251v44q25 0 36 15t11 44v14h-48v86h94q6 -22 8.5 -43t2.5 -39q0 -62 -26.5 -91.5t-77.5 -29.5z" />
    <glyph glyph-name="uni021B" unicode="&#x21b;" horiz-adv-x="405" 
d="M275 0q-47 0 -82 15t-54 50t-19 95v259h-87v85h87l12 126h88v-126h143v-85h-143v-260q0 -43 18 -58.5t62 -15.5h58v-85h-83zM205 -251v44q25 0 36 15t11 44v14h-48v86h94q6 -22 8.5 -43t2.5 -39q0 -62 -26.5 -91.5t-77.5 -29.5z" />
    <glyph glyph-name="uni0237" unicode="&#x237;" horiz-adv-x="236" 
d="M-28 -220v85h40q36 0 51 15t15 50v574h100v-576q0 -52 -17.5 -85t-51.5 -48t-82 -15h-55z" />
    <glyph glyph-name="uni0259" unicode="&#x259;" horiz-adv-x="579" 
d="M282 516q73 0 128.5 -33t87.5 -92t32 -138t-31.5 -138.5t-87.5 -93t-130 -33.5q-73 0 -126.5 33t-82.5 87.5t-29 119.5q0 11 0.5 22.5t1.5 24.5h411v-70h-313q3 -63 42 -98.5t97 -35.5q41 0 75 18.5t54.5 54.5t20.5 89v28q0 56 -20.5 94t-54.5 57.5t-74 19.5
q-48 0 -79.5 -21t-45.5 -57h-101q14 47 44.5 83t76.5 57.5t104 21.5z" />
    <glyph glyph-name="circumflex" unicode="&#x2c6;" horiz-adv-x="310" 
d="M15 548v75l140 81l140 -81v-75l-140 84z" />
    <glyph glyph-name="caron" unicode="&#x2c7;" horiz-adv-x="310" 
d="M155 547l-140 82v74l140 -84l140 84v-74z" />
    <glyph glyph-name="breve" unicode="&#x2d8;" horiz-adv-x="322" 
d="M160 550q-46 0 -78.5 18t-49.5 49t-17 71v15h56q0 -36 20.5 -56t68.5 -20q49 0 69 20t20 56h58v-15q0 -40 -17.5 -71t-50 -49t-79.5 -18z" />
    <glyph glyph-name="dotaccent" unicode="&#x2d9;" horiz-adv-x="143" 
d="M71 561q-22 0 -38 16t-16 38q0 23 16 39t38 16q23 0 38.5 -16t15.5 -39q0 -22 -15.5 -38t-38.5 -16z" />
    <glyph glyph-name="ring" unicode="&#x2da;" horiz-adv-x="243" 
d="M122 553q-45 0 -77 28.5t-32 78.5q0 49 32 77.5t77 28.5t76.5 -28.5t31.5 -77.5q0 -50 -31.5 -78.5t-76.5 -28.5zM122 602q23 0 39 16t16 42q0 27 -16 42t-39 15t-39.5 -15t-16.5 -42q0 -26 16.5 -42t39.5 -16z" />
    <glyph glyph-name="ogonek" unicode="&#x2db;" horiz-adv-x="203" 
d="M124 -206q-33 0 -61 10.5t-45.5 32t-17.5 56.5q0 25 11.5 47.5t39 44.5t74.5 42l50 22l24 -49l-56 -27q-36 -17 -50 -34.5t-14 -36.5q0 -21 15.5 -33.5t41.5 -12.5q14 0 32 4t35 11v-63q-17 -6 -38 -10t-41 -4z" />
    <glyph glyph-name="tilde" unicode="&#x2dc;" horiz-adv-x="348" 
d="M230 550q-28 0 -46.5 12t-34.5 23.5t-37 11.5q-16 0 -27.5 -11t-14.5 -34h-56q8 55 35.5 82.5t66.5 27.5q28 0 46.5 -11.5t35 -23.5t36.5 -12q17 0 29 11.5t15 33.5h56q-7 -55 -35 -82.5t-69 -27.5z" />
    <glyph glyph-name="hungarumlaut" unicode="&#x2dd;" horiz-adv-x="348" 
d="M169 547l76 160h84l-95 -160h-65zM15 547l68 160h84l-86 -160h-66z" />
    <glyph glyph-name="gravecomb" unicode="&#x300;" 
d="M210 547l-210 114l13 82v0l207 -127z" />
    <glyph glyph-name="acutecomb" unicode="&#x301;" 
d="M10 547l-10 69l207 127v0l13 -82z" />
    <glyph glyph-name="uni0302" unicode="&#x302;" 
d="M0 550v75l140 81l141 -81v-75l-141 83z" />
    <glyph glyph-name="tildecomb" unicode="&#x303;" 
d="M216 570q-27 0 -46 11.5t-35 23t-37 11.5q-16 0 -27.5 -11t-14.5 -34h-56q8 55 35.5 82.5t67.5 27.5q27 0 45.5 -11.5t35 -23.5t37.5 -12q17 0 28.5 11.5t14.5 33.5h56q-7 -54 -35 -81.5t-69 -27.5z" />
    <glyph glyph-name="uni0304" unicode="&#x304;" 
d="M0 594v73h357v-73h-357z" />
    <glyph glyph-name="uni0306" unicode="&#x306;" 
d="M146 563q-47 0 -79.5 17.5t-49.5 49t-17 70.5v15h56q0 -36 20.5 -56t69.5 -20q48 0 68.5 20t20.5 56h57v-15q0 -39 -17.5 -70.5t-50 -49t-78.5 -17.5z" />
    <glyph glyph-name="uni0307" unicode="&#x307;" 
d="M54 571q-22 0 -38 16t-16 38t16 38t38 16t38.5 -16t16.5 -38t-16.5 -38t-38.5 -16z" />
    <glyph glyph-name="uni0308" unicode="&#x308;" 
d="M54 570q-23 0 -38.5 15.5t-15.5 38.5q0 22 15.5 38t38.5 16q22 0 38.5 -16t16.5 -38q0 -23 -16.5 -38.5t-38.5 -15.5zM222 570q-23 0 -39 15.5t-16 38.5q0 22 16 38t39 16q22 0 37.5 -16t15.5 -38q0 -23 -15.5 -38.5t-37.5 -15.5z" />
    <glyph glyph-name="uni030A" unicode="&#x30a;" 
d="M108 570q-44 0 -76 28t-32 78q0 49 32 77.5t76 28.5q45 0 76.5 -28.5t31.5 -77.5q0 -50 -31.5 -78t-76.5 -28zM108 618q23 0 39 16t16 42q0 27 -16 42t-39 15q-22 0 -38.5 -15t-16.5 -42q0 -26 16.5 -42t38.5 -16z" />
    <glyph glyph-name="uni030B" unicode="&#x30b;" 
d="M155 547l75 160h85l-95 -160h-65zM0 547l68 160h84l-86 -160h-66z" />
    <glyph glyph-name="uni030C" unicode="&#x30c;" 
d="M140 563l-140 81v75l140 -85l141 85v-75z" />
    <glyph glyph-name="uni0312" unicode="&#x312;" 
d="M105 758v-44q-25 0 -36.5 -9.5t-11.5 -28.5v-20h48v-90h-93q-6 27 -9 47t-3 41q0 53 27 78.5t78 25.5z" />
    <glyph glyph-name="uni0326" unicode="&#x326;" 
d="M2 -251v44q25 0 36 15t11 44v14h-48v86h94q6 -22 8.5 -43t2.5 -39q0 -62 -26.5 -91.5t-77.5 -29.5z" />
    <glyph glyph-name="uni0327" unicode="&#x327;" 
d="M0 -260v60h99q32 0 47.5 11t15.5 33q0 21 -15.5 31t-47.5 10h-53v122h65v-65q36 1 65.5 -10t46.5 -33.5t17 -56.5q0 -32 -16.5 -55t-44.5 -35t-63 -12h-116z" />
    <glyph glyph-name="uni0328" unicode="&#x328;" 
d="M124 -206q-33 0 -61 10.5t-45.5 32t-17.5 56.5q0 25 11.5 47.5t39 44.5t74.5 42l50 22l24 -49l-56 -27q-35 -17 -49.5 -34.5t-14.5 -36.5q0 -21 15.5 -33.5t41.5 -12.5q14 0 32 4t35 11v-63q-17 -6 -37.5 -10t-41.5 -4z" />
    <glyph glyph-name="pi" unicode="&#x3c0;" horiz-adv-x="646" 
d="M119 0v426h-78v78h564v-78h-77v-426h-100v426h-209v-426h-100z" />
    <glyph glyph-name="endash" unicode="&#x2013;" horiz-adv-x="677" 
d="M74 253v84h530v-84h-530z" />
    <glyph glyph-name="emdash" unicode="&#x2014;" horiz-adv-x="887" 
d="M74 253v84h739v-84h-739z" />
    <glyph glyph-name="quoteleft" unicode="&#x2018;" horiz-adv-x="224" 
d="M30 462l94 238h70l-55 -238h-109z" />
    <glyph glyph-name="quoteright" unicode="&#x2019;" horiz-adv-x="224" 
d="M194 700l-94 -238h-70l55 238h109z" />
    <glyph glyph-name="quotesinglbase" unicode="&#x201a;" horiz-adv-x="209" 
d="M10 -118l56 235h109l-95 -235h-70z" />
    <glyph glyph-name="quotedblleft" unicode="&#x201c;" horiz-adv-x="394" 
d="M199 462l95 238h70l-56 -238h-109zM30 462l94 238h70l-55 -238h-109z" />
    <glyph glyph-name="quotedblright" unicode="&#x201d;" horiz-adv-x="394" 
d="M195 700l-95 -238h-70l56 238h109zM364 700l-94 -238h-70l55 238h109z" />
    <glyph glyph-name="quotedblbase" unicode="&#x201e;" horiz-adv-x="381" 
d="M10 -118l56 235h109l-95 -235h-70zM183 -118l55 235h109l-94 -235h-70z" />
    <glyph glyph-name="dagger" unicode="&#x2020;" horiz-adv-x="554" 
d="M227 -260l10 739l-194 -8v79l194 -9l-10 241h99l-9 -241l193 9v-79l-193 8l9 -739h-99z" />
    <glyph glyph-name="daggerdbl" unicode="&#x2021;" horiz-adv-x="554" 
d="M227 -260l11 240l-195 -8v79l195 -9v437l-195 -8v79l195 -9l-11 241h99l-9 -241l194 9v-79l-194 8v-437l194 9v-79l-194 8l9 -240h-99z" />
    <glyph glyph-name="bullet" unicode="&#x2022;" horiz-adv-x="369" 
d="M183 207q-34 0 -62.5 17t-45 45.5t-16.5 63.5q0 36 16.5 64.5t45 45.5t62.5 17q36 0 64.5 -17t45.5 -45.5t17 -64.5q0 -35 -17 -63.5t-45.5 -45.5t-64.5 -17z" />
    <glyph glyph-name="ellipsis" unicode="&#x2026;" horiz-adv-x="604" 
d="M302 -5q-29 0 -47.5 18.5t-18.5 44.5q0 27 18.5 45.5t47.5 18.5t47 -18.5t18 -45.5q0 -26 -18 -44.5t-47 -18.5zM497 -5q-29 0 -47.5 18.5t-18.5 44.5q0 27 18.5 45.5t47.5 18.5t47 -18.5t18 -45.5q0 -26 -18 -44.5t-47 -18.5zM108 -5q-29 0 -47.5 18.5t-18.5 44.5
q0 27 18.5 45.5t47.5 18.5t47 -18.5t18 -45.5q0 -26 -18 -44.5t-47 -18.5z" />
    <glyph glyph-name="perthousand" unicode="&#x2030;" horiz-adv-x="1181" 
d="M975 -12q-46 0 -83 21t-59 59.5t-22 90.5q0 54 22 92t59.5 59t83.5 21t83 -21t58.5 -59t21.5 -92q0 -52 -21.5 -90.5t-58.5 -59.5t-84 -21zM975 60q23 0 42 11.5t30 33.5t11 54q0 34 -11 56.5t-29.5 33.5t-41.5 11t-42 -11t-30.5 -33.5t-11.5 -56.5q0 -32 11.5 -54
t30.5 -33.5t41 -11.5zM158 0l402 700h99l-402 -700h-99zM617 -12q-46 0 -83 21t-59 59.5t-22 90.5q0 54 22 92t59 59t83 21q48 0 84.5 -21t58 -59t21.5 -92q0 -52 -21.5 -90.5t-58.5 -59.5t-84 -21zM616 62q23 0 41.5 11t30 32.5t11.5 54.5t-11 54.5t-29.5 32.5t-41.5 11
q-21 0 -40 -11t-30.5 -32.5t-11.5 -54.5t11.5 -54.5t30 -32.5t39.5 -11zM206 368q-46 0 -83 21t-59.5 59.5t-22.5 91.5t22.5 91t60 59t83.5 21t83 -21t58.5 -59t21.5 -91t-21.5 -91.5t-59 -59.5t-83.5 -21zM206 442q22 0 40.5 11t29.5 32.5t11 54.5t-11 55t-29.5 33
t-39.5 11q-22 0 -41.5 -11t-31 -33t-11.5 -55q0 -32 11.5 -54t30.5 -33t41 -11z" />
    <glyph glyph-name="guilsinglleft" unicode="&#x2039;" horiz-adv-x="287" 
d="M139 120l-95 175l95 175h97l-98 -175l98 -175h-97z" />
    <glyph glyph-name="guilsinglright" unicode="&#x203a;" horiz-adv-x="287" 
d="M148 120h-97l98 175l-98 175h97l95 -175z" />
    <glyph glyph-name="fraction" unicode="&#x2044;" horiz-adv-x="457" 
d="M-18 0l403 700h100l-404 -700h-99z" />
    <glyph glyph-name="uni2074" unicode="&#x2074;" horiz-adv-x="330" 
d="M192 352v64h-169v56l161 228h85v-225h43v-59h-43v-64h-77zM103 475h95v141v0z" />
    <glyph glyph-name="Euro" unicode="&#x20ac;" horiz-adv-x="777" 
d="M22 240v68h432v-68h-432zM22 393v67h432v-67h-432zM433 -12q-102 0 -177 45.5t-115.5 127t-40.5 189.5q0 107 40.5 189t115.5 127.5t177 45.5q123 0 199.5 -59t97.5 -166h-110q-15 62 -61.5 99t-125.5 37q-70 0 -122 -33t-80.5 -94t-28.5 -146t28.5 -146.5t80.5 -94
t122 -32.5q79 0 125.5 35.5t61.5 96.5h110q-21 -104 -97.5 -162.5t-199.5 -58.5z" />
    <glyph glyph-name="trademark" unicode="&#x2122;" horiz-adv-x="792" 
d="M27 639v61h253v-61h-88v-291h-77v291h-88zM333 348v352h100l106 -260l111 260h93v-352h-71v252l-109 -252h-54l-107 254v-254h-69z" />
    <glyph glyph-name="arrowleft" horiz-adv-x="780" 
d="M738 297h-556l277 -258l-63 -64l-358 342v55l358 341l63 -64l-279 -260h558v-92z" />
    <glyph glyph-name="arrowup" unicode="&#x2191;" horiz-adv-x="864" 
d="M38 342l366 358h56l365 -358l-63 -64l-282 279v-557h-96v558l-282 -279z" />
    <glyph glyph-name="arrowright" horiz-adv-x="780" 
d="M42 297v92h558l-279 260l63 64l358 -341v-55l-358 -342l-63 64l277 258h-556z" />
    <glyph glyph-name="arrowdown" unicode="&#x2193;" horiz-adv-x="867" 
d="M40 358l64 63l282 -279v558h96v-557l282 279l63 -64l-365 -358h-56z" />
    <glyph glyph-name="arrowboth" horiz-adv-x="984" 
d="M40 316v56l324 337l65 -57l-256 -263h638l-256 263l66 57l323 -337v-56l-323 -338l-66 57l256 264h-638l256 -264l-65 -57z" />
    <glyph glyph-name="arrowupdn" horiz-adv-x="834" 
d="M42 233l55 65l273 -180v465l-273 -181l-55 65l347 234h56l348 -234l-55 -65l-273 181v-465l273 180l55 -65l-348 -233h-56z" />
    <glyph glyph-name="uni2196" horiz-adv-x="638" 
d="M526 56l-396 396v-398h-88v516l40 39h514v-88h-403l399 -398z" />
    <glyph glyph-name="uni2197" horiz-adv-x="636" 
d="M112 68l-66 67l399 398h-403v88h515l39 -39v-516h-88v398z" />
    <glyph glyph-name="uni2198" horiz-adv-x="638" 
d="M112 616l396 -396v398h88v-516l-39 -39h-515v88h403l-399 398z" />
    <glyph glyph-name="uni2199" horiz-adv-x="638" 
d="M526 616l66 -67l-399 -398h403v-88h-514l-40 39v516h88v-398z" />
    <glyph glyph-name="minus" unicode="&#x2212;" horiz-adv-x="559" 
d="M78 253v84h404v-84h-404z" />
    <glyph glyph-name="uni2215" unicode="&#x2215;" horiz-adv-x="402" 
d="M27 -101l250 870h98l-250 -870h-98z" />
    <glyph glyph-name="i.loclTRK" horiz-adv-x="237" 
d="M68 0v504h100v-504h-100zM118 571q-22 0 -38 16t-16 38t16 38t38 16t38.5 -16t16.5 -38t-16.5 -38t-38.5 -16z" />
    <glyph glyph-name="one.dnom" horiz-adv-x="214" 
d="M94 0v276l-67 -17v49l97 44h49v-352h-79z" />
    <glyph glyph-name="two.dnom" horiz-adv-x="340" 
d="M36 0v57l114 89q28 22 46.5 46t18.5 55q0 26 -14 39.5t-35 13.5q-24 0 -37.5 -14.5t-17.5 -40.5h-78q3 48 38 81t101 33q40 0 68.5 -15t43 -39.5t14.5 -53.5q0 -40 -25 -70t-75 -64l-77 -55h180v-62h-265z" />
    <glyph glyph-name="three.dnom" horiz-adv-x="338" 
d="M166 -5q-66 0 -101.5 28.5t-40.5 81.5h79q3 -19 11 -30.5t21 -16t29 -4.5q27 0 43 13t16 36q0 26 -18 39t-45 13h-44v44h42q27 0 44 13t17 38q0 23 -15.5 36.5t-41.5 13.5q-25 0 -40 -12t-20 -32h-74q3 28 19.5 51.5t47 37.5t74.5 14q57 0 95 -29.5t38 -73.5
q0 -31 -17.5 -50.5t-47.5 -27.5v-2q30 -10 49.5 -30t19.5 -53q0 -41 -37.5 -69.5t-102.5 -28.5z" />
    <glyph glyph-name="four.dnom" horiz-adv-x="330" 
d="M192 0v64h-169v56l161 228h85v-225h43v-59h-43v-64h-77zM103 123h95v141v0z" />
    <glyph glyph-name="one.numr" horiz-adv-x="214" 
d="M94 352v276l-67 -17v49l97 44h49v-352h-79z" />
    <glyph glyph-name="two.numr" horiz-adv-x="340" 
d="M36 352v57l114 89q28 22 46.5 46t18.5 55q0 26 -14 39.5t-35 13.5q-24 0 -37.5 -14.5t-17.5 -40.5h-78q3 48 38 81t101 33q40 0 68.5 -15t43 -39.5t14.5 -53.5q0 -40 -25 -70t-75 -64l-77 -55h180v-62h-265z" />
    <glyph glyph-name="three.numr" horiz-adv-x="338" 
d="M166 347q-66 0 -101.5 28.5t-40.5 81.5h79q3 -19 11 -30.5t21 -16t29 -4.5q27 0 43 13t16 36q0 26 -18 39t-45 13h-44v44h42q27 0 44 13t17 38q0 23 -15.5 36.5t-41.5 13.5q-25 0 -40 -12t-20 -32h-74q3 28 19.5 51.5t47 37.5t74.5 14q57 0 95 -29.5t38 -73.5
q0 -31 -17.5 -50.5t-47.5 -27.5v-2q30 -10 49.5 -30t19.5 -53q0 -41 -37.5 -69.5t-102.5 -28.5z" />
    <glyph glyph-name="four.numr" horiz-adv-x="330" 
d="M192 352v64h-169v56l161 228h85v-225h43v-59h-43v-64h-77zM103 475h95v141v0z" />
    <glyph glyph-name="quotedblleft.ss08" horiz-adv-x="764" 
d="M382 -12q75 0 140.5 28t115.5 78t78 115.5t28 140.5t-28 140.5t-78 115.5t-115.5 78t-140.5 28t-140.5 -28t-115.5 -78t-78 -115.5t-28 -140.5t28 -140.5t78 -115.5t115.5 -78t140.5 -28zM362 483v-53q-32 0 -46 -17t-14 -53v-28h63v-110h-117q-8 34 -12 63.5t-4 54.5
q0 49 15 80.5t43.5 47t71.5 15.5zM534 483v-53q-32 0 -45.5 -17t-13.5 -53v-28h63v-110h-118q-8 34 -12 63.5t-4 54.5q0 49 15 80.5t44 47t71 15.5z" />
    <glyph glyph-name="quotedblright.ss08" horiz-adv-x="764" 
d="M382 712q-75 0 -140.5 -28t-115.5 -78t-78 -115.5t-28 -140.5t28 -140.5t78 -115.5t115.5 -78t140.5 -28t140.5 28t115.5 78t78 115.5t28 140.5t-28 140.5t-78 115.5t-115.5 78t-140.5 28zM402 217v53q32 0 46 17.5t14 52.5v28h-63v110h117q9 -34 12.5 -63.5t3.5 -54.5
q0 -48 -14.5 -80t-43.5 -47.5t-72 -15.5zM230 217v53q32 0 46 17.5t14 52.5v28h-64v110h118q9 -34 12.5 -63.5t3.5 -54.5q0 -48 -15 -80t-44 -47.5t-71 -15.5z" />
    <glyph glyph-name="arrowup.ss08" horiz-adv-x="764" 
d="M382 -12q-75 0 -140.5 28t-115.5 78t-78 115.5t-28 140.5t28 140.5t78 115.5t115.5 78t140.5 28t140.5 -28t115.5 -77.5t78 -115t28 -141.5q0 -75 -28 -140.5t-78 -115.5t-115.5 -78t-140.5 -28zM344 169h77v252l119 -117l50 49l-182 180h-51l-182 -180l49 -49l120 117
v-252z" />
    <glyph glyph-name="uni2197.ss08" horiz-adv-x="764" 
d="M382 -12q-75 0 -140.5 28t-115.5 78t-78 115.5t-28 140.5t28 140.5t78 115.5t115.5 78t140.5 28t140.5 -28t115.5 -77.5t78 -115.5t28 -141t-28 -140.5t-78 -115.5t-115.5 -78t-140.5 -28zM281 201l182 180v-176h70v259l-36 36h-259v-69h175l-182 -181z" />
    <glyph glyph-name="arrowright.ss08" horiz-adv-x="764" 
d="M382 -12q-75 0 -140.5 28t-115.5 78t-78 115.5t-28 140.5t28 140.5t78 115.5t115.5 78t140.5 28t140.5 -28t115.5 -77.5t78 -115.5t28 -141t-28 -140.5t-78 -115.5t-115.5 -78t-140.5 -28zM384 144l181 181v51l-181 181l-50 -49l123 -121h-258v-73h258l-123 -120z" />
    <glyph glyph-name="uni2198.ss08" horiz-adv-x="764" 
d="M382 712q75 0 140.5 -28t115.5 -78t78 -115.5t28 -140.5t-28 -141t-78 -115.5t-115.5 -77.5t-140.5 -28t-140.5 28t-115.5 78t-78 115.5t-28 140.5t28 140.5t78 115.5t115.5 78t140.5 28zM281 499l-50 -49l182 -181h-175v-69h259l36 36v259h-70v-176z" />
    <glyph glyph-name="arrowdown.ss08" horiz-adv-x="764" 
d="M382 712q75 0 140.5 -28t115.5 -78t78 -115.5t28 -140.5q0 -76 -28 -141.5t-78 -115t-115.5 -77.5t-140.5 -28t-140.5 28t-115.5 78t-78 115.5t-28 140.5t28 140.5t78 115.5t115.5 78t140.5 28zM344 531v-252l-120 117l-49 -49l182 -180h51l182 180l-50 49l-119 -117v252
h-77z" />
    <glyph glyph-name="uni2199.ss08" horiz-adv-x="764" 
d="M382 712q75 0 140.5 -28t115.5 -78t78 -115.5t28 -140.5t-28 -140.5t-78 -115.5t-115.5 -78t-140.5 -28t-140.5 28t-115.5 77.5t-78 115.5t-28 141t28 140.5t78 115.5t115.5 78t140.5 28zM483 499l-182 -180v176h-70v-259l36 -36h259v69h-175l182 181z" />
    <glyph glyph-name="arrowleft.ss08" horiz-adv-x="764" 
d="M382 -12q-75 0 -140.5 28t-115.5 78t-78 115.5t-28 140.5t28 141t78 115.5t115.5 77.5t140.5 28t140.5 -28t115.5 -78t78 -115.5t28 -140.5t-28 -140.5t-78 -115.5t-115.5 -78t-140.5 -28zM380 144l50 50l-123 120h258v73h-258l123 121l-50 49l-181 -181v-51z" />
    <glyph glyph-name="uni2196.ss08" horiz-adv-x="764" 
d="M382 -12q-75 0 -140.5 28t-115.5 78t-78 115.5t-28 140.5t28 141t78 115.5t115.5 77.5t140.5 28t140.5 -28t115.5 -78t78 -115.5t28 -140.5t-28 -140.5t-78 -115.5t-115.5 -78t-140.5 -28zM483 201l50 49l-182 181h175v69h-259l-36 -36v-259h70v176z" />
    <glyph glyph-name="arrowboth.ss08" horiz-adv-x="764" 
d="M382 -12q-75 0 -140.5 28t-115.5 78t-78 115.5t-28 140.5t28 140.5t78 115.5t115.5 78t140.5 28t140.5 -28t115.5 -77.5t78 -115.5t28 -141t-28 -140.5t-78 -115.5t-115.5 -78t-140.5 -28zM296 159l55 43l-92 112h248l-91 -112l55 -43l132 166v51l-132 165l-55 -43
l91 -112h-248l92 112l-55 43l-134 -165v-51z" />
    <glyph glyph-name="arrowupdn.ss08" horiz-adv-x="764" 
d="M382 -12q-75 0 -140.5 28t-115.5 78t-78 115.5t-28 140.5t28 140.5t78 115.5t115.5 78t140.5 28t140.5 -28t115.5 -78t78 -115.5t28 -140.5t-28 -140.5t-77.5 -115.5t-115.5 -78t-141 -28zM358 131h50l166 132l-42 55l-113 -90v244l113 -90l42 55l-166 132h-50l-167 -132
l43 -55l112 90v-244l-112 90l-43 -55z" />
    <glyph glyph-name="uni030C.alt" 
d="M0 532v45q25 0 36.5 9.5t11.5 28.5v20h-48v90h93q6 -27 9 -47t3 -41q0 -54 -27.5 -79.5t-77.5 -25.5z" />
    <glyph glyph-name="uni0308.case" 
d="M54 773q-23 0 -38.5 15.5t-15.5 38.5q0 22 15.5 38t38.5 16q22 0 38.5 -16t16.5 -38q0 -23 -16.5 -38.5t-38.5 -15.5zM222 773q-23 0 -39 15.5t-16 38.5q0 22 16 38t39 16q22 0 37.5 -16t15.5 -38q0 -23 -15.5 -38.5t-37.5 -15.5z" />
    <glyph glyph-name="uni0307.case" 
d="M54 765q-22 0 -38 16t-16 38q0 23 16 39t38 16t38.5 -16t16.5 -39q0 -22 -16.5 -38t-38.5 -16z" />
    <glyph glyph-name="gravecomb.case" 
d="M210 743l-210 115l13 81v0l207 -126z" />
    <glyph glyph-name="acutecomb.case" 
d="M10 743l-10 70l207 126v0l13 -81z" />
    <glyph glyph-name="uni030B.case" 
d="M155 751l75 160h85l-95 -160h-65zM0 751l68 160h84l-86 -160h-66z" />
    <glyph glyph-name="uni0302.case" 
d="M0 752v75l140 81l141 -81v-75l-141 84z" />
    <glyph glyph-name="uni030C.case" 
d="M140 751l-140 82v74l140 -84l141 84v-74z" />
    <glyph glyph-name="uni0306.case" 
d="M146 754q-47 0 -79.5 18t-49.5 49t-17 71v15h56q0 -36 20.5 -56t69.5 -20q48 0 68.5 20t20.5 56h57v-15q0 -40 -17.5 -71t-50 -49t-78.5 -18z" />
    <glyph glyph-name="uni030A.case" 
d="M108 757q-44 0 -76 28.5t-32 78.5q0 49 32 77.5t76 28.5q45 0 76.5 -28.5t31.5 -77.5q0 -50 -31.5 -78.5t-76.5 -28.5zM108 806q23 0 39 16t16 42q0 27 -16 42t-39 15q-22 0 -38.5 -15t-16.5 -42q0 -26 16.5 -42t38.5 -16z" />
    <glyph glyph-name="tildecomb.case" 
d="M216 754q-27 0 -46 12t-35 23.5t-37 11.5q-16 0 -27.5 -11t-14.5 -34h-56q8 55 35.5 82.5t67.5 27.5q27 0 45.5 -11.5t35 -23.5t37.5 -12q17 0 28.5 11.5t14.5 33.5h56q-7 -55 -35 -82.5t-69 -27.5z" />
    <glyph glyph-name="uni0304.case" 
d="M0 791v73h357v-73h-357z" />
    <glyph glyph-name="uni0327.case" 
d="M0 -260v60h99q32 0 47.5 11t15.5 33q0 21 -15.5 31t-47.5 10h-53v122h65v-65q36 1 65.5 -10t46.5 -33.5t17 -56.5q0 -32 -16.5 -55t-44.5 -35t-63 -12h-116z" />
    <glyph glyph-name="uni0328.case" 
d="M124 -206q-33 0 -61 10.5t-45.5 32t-17.5 56.5q0 25 11.5 47.5t39 44.5t74.5 42l50 22l24 -49l-56 -27q-35 -17 -49.5 -34.5t-14.5 -36.5q0 -21 15.5 -33.5t41.5 -12.5q14 0 32 4t35 11v-63q-17 -6 -37.5 -10t-41.5 -4z" />
    </font>
</defs>
</svg>
