<?xml version="1.0" standalone="no"?>
<!DOCTYPE svg PUBLIC "-//W3C//DTD SVG 1.1//EN" "http://www.w3.org/Graphics/SVG/1.1/DTD/svg11.dtd" >
<svg xmlns="http://www.w3.org/2000/svg" xmlns:xlink="http://www.w3.org/1999/xlink" version="1.1">
<metadata>
Created by FontForge 20170731 at Wed Jun 14 12:00:55 2023
 By Aleksey,,,
Copyright 2014 The DM Sans Project Authors (https://github.com/googlefonts/dm-fonts)
</metadata>
<defs>
<font id="DMSans-Bold" horiz-adv-x="0" >
  <font-face 
    font-family="DM Sans"
    font-weight="700"
    font-stretch="normal"
    units-per-em="1000"
    panose-1="0 0 0 0 0 0 0 0 0 0"
    ascent="800"
    descent="-200"
    x-height="504"
    cap-height="700"
    bbox="-55 -280 1238 978"
    underline-thickness="50"
    underline-position="-175"
    unicode-range="U+000D-2215"
  />
<missing-glyph horiz-adv-x="538" 
d="M69 0v700h401v-700h-401zM139 57h261v586h-261v-586z" />
    <glyph glyph-name="fi" unicode="fi" horiz-adv-x="610" 
d="M89 0v391h-69v113h69v45q0 63 21 100t60.5 54t92.5 17h55v-115h-35q-31 0 -45 -12.5t-14 -42.5v-46h317v-504h-135v391h-182v-391h-135zM474 572q-36 0 -59.5 22t-23.5 55t23.5 54t59.5 21q37 0 60.5 -21t23.5 -54t-23.5 -55t-60.5 -22z" />
    <glyph glyph-name="fl" unicode="fl" horiz-adv-x="638" 
d="M89 0v549q0 63 21 100t60.5 54t92.5 17h62v-115h-42q-32 0 -45.5 -12.5t-13.5 -43.5v-549h-135zM20 391v113h313v-113h-313zM437 0v720h135v-720h-135z" />
    <glyph glyph-name=".notdef" horiz-adv-x="538" 
d="M69 0v700h401v-700h-401zM139 57h261v586h-261v-586z" />
    <glyph glyph-name=".null" 
 />
    <glyph glyph-name="nonmarkingreturn" horiz-adv-x="333" 
 />
    <glyph glyph-name="CR" unicode="&#xd;" horiz-adv-x="600" 
 />
    <glyph glyph-name="space" unicode=" " horiz-adv-x="235" 
 />
    <glyph glyph-name="exclam" unicode="!" horiz-adv-x="309" 
d="M97 228l-15 472h145l-15 -472h-115zM155 -5q-37 0 -60.5 22.5t-23.5 55.5t23.5 55.5t60.5 22.5t60 -22.5t23 -55.5t-23 -55.5t-60 -22.5z" />
    <glyph glyph-name="quotedbl" unicode="&#x22;" horiz-adv-x="367" 
d="M223 537l-12 218h116l-12 -218h-92zM53 537l-13 218h116l-12 -218h-91z" />
    <glyph glyph-name="numbersign" unicode="#" horiz-adv-x="857" 
d="M447 0l152 726h126l-151 -726h-127zM138 0l151 726h127l-151 -726h-127zM32 171v122h731v-122h-731zM85 437v121h732v-121h-732z" />
    <glyph glyph-name="dollar" unicode="$" horiz-adv-x="604" 
d="M268 -87v879h66v-879h-66zM310 -12q-76 0 -135.5 26t-94 76t-35.5 121h143q1 -31 16 -56t41.5 -39.5t63.5 -14.5q32 0 55.5 10.5t36.5 29.5t13 45q0 30 -14.5 50t-40 34t-59 25.5t-70.5 24.5q-83 27 -126.5 72t-43.5 119q0 63 30.5 108t84.5 69t123 24q71 0 124.5 -24.5
t85 -70.5t32.5 -108h-144q-1 23 -13.5 43.5t-34.5 33t-52 12.5q-26 1 -47.5 -8t-34 -26.5t-12.5 -43.5q0 -25 12.5 -42t34.5 -29.5t52 -23t65 -21.5q52 -18 96 -42.5t70 -63.5t26 -103q0 -55 -29 -102t-83.5 -76t-135.5 -29z" />
    <glyph glyph-name="percent" unicode="%" horiz-adv-x="902" 
d="M187 0l393 700h131l-393 -700h-131zM687 -12q-49 0 -88.5 21.5t-62.5 62t-23 95.5q0 56 23 96t62.5 61.5t88.5 21.5t88 -21.5t62 -61.5t23 -96q0 -55 -23 -95.5t-62 -62t-88 -21.5zM686 81q20 0 35 10t24 29t9 47q0 29 -8.5 48.5t-24 29.5t-35.5 10q-19 0 -34.5 -10
t-24.5 -29.5t-9 -48.5q0 -28 9 -47t24.5 -29t34.5 -10zM216 353q-48 0 -88 22t-63 62t-23 95q0 57 23.5 96.5t63 61.5t88.5 22t87.5 -22t62 -61.5t23.5 -96.5q0 -55 -23.5 -95t-62.5 -62t-88 -22zM216 446q19 0 34.5 10t24.5 29t9 47q0 30 -9 49t-24.5 29t-34.5 10
t-34.5 -10t-24.5 -29.5t-9 -48.5q0 -28 9 -47t24.5 -29t34.5 -10z" />
    <glyph glyph-name="ampersand" unicode="&#x26;" horiz-adv-x="781" 
d="M596 0l-380 378q-46 46 -65 83.5t-19 79.5q0 48 24 87t70.5 61.5t111.5 22.5t109.5 -24t68 -63t22.5 -88h-129q0 36 -21 54t-52 18q-34 0 -54.5 -18.5t-20.5 -48.5q0 -24 15 -50t46 -58l435 -434h-161zM292 -11q-77 0 -133.5 26.5t-87.5 74.5t-31 113q0 50 21 93.5t63 77
t104 53.5l51 16l59 -84l-46 -15q-61 -20 -90.5 -54t-29.5 -79q0 -31 15 -56.5t44 -40.5t68 -15q54 0 97 24t83 77q18 24 36 54t36 67l21 43h137l-34 -69q-25 -52 -51 -95t-54 -76q-57 -71 -124.5 -103t-153.5 -32z" />
    <glyph glyph-name="quotesingle" unicode="'" horiz-adv-x="197" 
d="M53 537l-13 218h117l-13 -218h-91z" />
    <glyph glyph-name="parenleft" unicode="(" horiz-adv-x="405" 
d="M239 -145q-56 57 -100 130.5t-68.5 161.5t-24.5 186q0 99 24.5 186.5t68.5 161.5t100 130h134v-13q-60 -63 -103.5 -138t-67.5 -157.5t-24 -169.5t24 -169.5t68 -157t103 -138.5v-13h-134z" />
    <glyph glyph-name="parenright" unicode=")" horiz-adv-x="405" 
d="M166 -145h-135v13q60 64 104 138.5t67.5 157t23.5 169.5t-23.5 169.5t-67.5 157.5t-104 138v13h135q56 -56 99.5 -130t68.5 -161.5t25 -186.5q0 -98 -25 -186t-68.5 -161.5t-99.5 -130.5z" />
    <glyph glyph-name="asterisk" unicode="*" horiz-adv-x="513" 
d="M211 360l19 140l-109 -89l-51 89l129 50l-128 49l47 84l113 -87l-21 141h98l-22 -141l113 87l46 -83l-129 -51l130 -50l-49 -87l-111 88l21 -140h-96z" />
    <glyph glyph-name="plus" unicode="+" horiz-adv-x="579" 
d="M232 61v456h115v-456h-115zM45 233v113h488v-113h-488z" />
    <glyph glyph-name="comma" unicode="," horiz-adv-x="246" 
d="M22 -123l57 254h130l-99 -254h-88z" />
    <glyph glyph-name="hyphen" unicode="-" horiz-adv-x="576" 
d="M77 238v113h422v-113h-422z" />
    <glyph glyph-name="period" unicode="." horiz-adv-x="252" 
d="M127 -5q-38 0 -61 22.5t-23 55.5t23 55.5t61 22.5q36 0 59 -22.5t23 -55.5t-23 -55.5t-59 -22.5z" />
    <glyph glyph-name="slash" unicode="/" horiz-adv-x="427" 
d="M23 -114l250 893h131l-250 -893h-131z" />
    <glyph glyph-name="zero" unicode="0" horiz-adv-x="704" 
d="M352 -12q-95 0 -164 46t-105.5 127.5t-36.5 188.5t36.5 188.5t105 127.5t164.5 46t164.5 -46t105 -127.5t36.5 -188.5t-36.5 -188.5t-105 -127.5t-164.5 -46zM352 109q50 0 88 29.5t59.5 83.5t21.5 128q0 75 -21.5 128.5t-59.5 82.5t-88 29t-88 -29t-59.5 -82.5
t-21.5 -128.5q0 -74 21.5 -128t59.5 -83.5t88 -29.5z" />
    <glyph glyph-name="one" unicode="1" horiz-adv-x="364" 
d="M155 0v545l-124 -33v108l182 80h82v-700h-140z" />
    <glyph glyph-name="two" unicode="2" horiz-adv-x="577" 
d="M50 0v99q64 51 124.5 102t108.5 101.5t76 98.5t28 93q0 28 -10 51.5t-31.5 38t-56.5 14.5t-59 -16t-36 -42.5t-12 -59.5h-131q3 77 35 129t86 77.5t121 25.5q74 0 125 -27.5t77.5 -74.5t26.5 -108q0 -46 -16.5 -90t-46 -85.5t-66.5 -79.5t-77 -72.5t-78 -64.5h301v-110
h-489z" />
    <glyph glyph-name="three" unicode="3" horiz-adv-x="603" 
d="M300 -12q-68 0 -125 25t-91 76t-36 129h132q1 -33 15 -59.5t41 -42t64 -15.5q35 0 60 14t38 37t13 53q0 35 -17.5 58.5t-48 35.5t-69.5 12h-52v111h52q49 0 82.5 23t33.5 69q0 38 -24.5 61t-68.5 23q-48 0 -75 -28t-30 -69h-132q3 66 33.5 113.5t82.5 72.5t121 25
q73 0 123.5 -25.5t76.5 -68.5t26 -93q0 -41 -15.5 -73t-41.5 -53t-57 -30q39 -8 68.5 -30.5t46 -57.5t16.5 -81q0 -57 -27.5 -105.5t-82 -77.5t-132.5 -29z" />
    <glyph glyph-name="four" unicode="4" horiz-adv-x="650" 
d="M389 0v127h-344v107l326 466h153v-456h91v-117h-91v-127h-135zM189 244h209v307v0z" />
    <glyph glyph-name="five" unicode="5" horiz-adv-x="622" 
d="M319 -12q-76 0 -131.5 27t-86.5 74t-36 107h132q7 -39 40 -66t83 -27q36 0 63 18t42 48.5t15 69.5q0 40 -15.5 69t-42 45t-60.5 16q-43 0 -73.5 -20.5t-43.5 -49.5h-131l58 401h393v-118h-293l-29 -156q22 23 59 38t83 15q57 0 99 -20t70 -53.5t42 -76t14 -89.5
q0 -55 -18.5 -101t-52 -80t-79 -52.5t-101.5 -18.5z" />
    <glyph glyph-name="six" unicode="6" horiz-adv-x="634" 
d="M332 -12q-79 0 -133.5 29t-87 78t-47 109.5t-14.5 122.5q0 118 33 204t95 133.5t150 47.5q74 0 125 -28.5t79 -74.5t33 -99h-126q-8 44 -37 67.5t-75 23.5q-43 0 -75 -26t-49.5 -78t-20.5 -131v-3v-3q16 27 42 48t60 33t72 12q58 0 108 -28t81 -79t31 -121
q0 -63 -30.5 -117.5t-85.5 -87t-128 -32.5zM324 104q36 0 63.5 15t43.5 41.5t16 60.5q0 36 -16 62t-44 41t-64 15q-35 0 -63 -15t-44.5 -41.5t-16.5 -60.5q0 -35 16.5 -61.5t45 -41.5t63.5 -15z" />
    <glyph glyph-name="seven" unicode="7" horiz-adv-x="537" 
d="M111 0l257 585h-339v115h477v-95l-255 -605h-140z" />
    <glyph glyph-name="eight" unicode="8" horiz-adv-x="633" 
d="M316 -12q-72 0 -130 26t-92 73t-34 109q0 43 14.5 78t40.5 62t62 41q-45 21 -72.5 60t-27.5 88t27 92t80 69t132 26t132 -26t80 -69t27 -92q0 -48 -27.5 -87.5t-72.5 -60.5q36 -15 62.5 -41.5t41 -61.5t14.5 -78q0 -62 -34.5 -109t-92.5 -73t-130 -26zM316 101
q62 0 93 30t31 76q0 51 -32.5 80.5t-91.5 29.5q-58 0 -91.5 -29.5t-33.5 -80.5q0 -46 32 -76t93 -30zM316 416q51 0 78.5 26t27.5 67q0 44 -27.5 68.5t-78.5 24.5q-50 0 -78 -24.5t-28 -69.5q0 -40 28 -66t78 -26z" />
    <glyph glyph-name="nine" unicode="9" horiz-adv-x="635" 
d="M306 -12q-73 0 -124 28.5t-78.5 74.5t-33.5 99h126q9 -44 37.5 -67.5t74.5 -23.5q43 0 74.5 25.5t49.5 77t20 127.5v6v5q-14 -26 -41 -47.5t-60.5 -33.5t-71.5 -12q-57 0 -108 28t-82 79t-31 121q0 64 31 118t86 86.5t127 32.5q80 0 134 -29t86.5 -78t47 -109.5
t14.5 -122.5q0 -117 -32.5 -203.5t-94.5 -134t-151 -47.5zM311 361q36 0 63.5 15t44 41.5t16.5 60.5q0 35 -16.5 62t-44.5 41.5t-64 14.5q-35 0 -63 -15t-43.5 -41t-15.5 -61t15.5 -61.5t43.5 -41.5t64 -15z" />
    <glyph glyph-name="colon" unicode=":" horiz-adv-x="254" 
d="M127 -5q-38 0 -61 22.5t-23 55.5t23 55.5t61 22.5q36 0 59 -22.5t23 -55.5t-23 -55.5t-59 -22.5zM127 361q-38 0 -61 22.5t-23 55.5t23 55.5t61 22.5q36 0 59 -22.5t23 -55.5t-23 -55.5t-59 -22.5z" />
    <glyph glyph-name="semicolon" unicode=";" horiz-adv-x="278" 
d="M151 361q-38 0 -61 22.5t-23 55.5t23 55.5t61 22.5q36 0 59 -22.5t23 -55.5t-23 -55.5t-59 -22.5zM30 -123l57 254h130l-99 -254h-88z" />
    <glyph glyph-name="less" unicode="&#x3c;" horiz-adv-x="579" 
d="M485 54h-170l-220 224v0l220 226h170l-221 -226z" />
    <glyph glyph-name="equal" unicode="=" horiz-adv-x="579" 
d="M75 343v118h429v-118h-429zM75 119v118h429v-118h-429z" />
    <glyph glyph-name="greater" unicode="&#x3e;" horiz-adv-x="579" 
d="M94 54l221 224l-221 226h171l220 -226v0l-220 -224h-171z" />
    <glyph glyph-name="question" unicode="?" horiz-adv-x="538" 
d="M143 226l-5 161h48q38 0 71 5t57.5 17t38.5 34.5t14 58.5q0 31 -12.5 53t-35.5 34t-54 12q-33 0 -56 -12.5t-36 -34t-13 -51.5h-127q-1 60 27 107t80.5 74.5t125.5 27.5q68 0 120.5 -24.5t82 -71.5t29.5 -114q0 -69 -29.5 -114t-82 -67t-121.5 -23l-3 -72h-119zM203 -5
q-37 0 -60.5 22.5t-23.5 55.5t23.5 55.5t60.5 22.5t60 -22.5t23 -55.5t-23 -55.5t-60 -22.5z" />
    <glyph glyph-name="at" unicode="@" horiz-adv-x="1046" 
d="M444 -214q-110 0 -193 43t-129 123t-46 187q0 111 37.5 205t107 164t164 109t207.5 39q116 0 200.5 -44t131.5 -122t47 -181q0 -61 -15.5 -117t-45 -100.5t-73 -70.5t-100.5 -26q-69 0 -101.5 40t-23.5 106l3 32l20 -54q-24 -58 -75.5 -92t-114.5 -34q-74 0 -116 45.5
t-42 123.5q0 55 16.5 105t47.5 89t74 62t94 23q58 0 90.5 -28.5t39.5 -81.5l-21 -15l21 117h110l-46 -266q-7 -37 2 -60.5t41 -23.5q28 0 48.5 20t34.5 53t20.5 72t6.5 76q0 81 -34.5 139.5t-99 90t-154.5 31.5q-88 0 -160.5 -32t-126 -89t-83 -132t-29.5 -162
q0 -86 34 -147t97 -92.5t150 -31.5q46 0 90.5 9t81.5 26l22 -88q-48 -20 -100.5 -30t-109.5 -10zM487 92q34 0 62.5 19.5t46.5 52.5t20 75q2 30 -7.5 53.5t-29 37t-48.5 13.5t-52 -13t-39.5 -35.5t-25.5 -51t-9 -59.5q0 -41 20.5 -66.5t61.5 -25.5z" />
    <glyph glyph-name="A" unicode="A" horiz-adv-x="709" 
d="M22 0l256 700h153l255 -700h-143l-189 546v0l-190 -546h-142zM135 159l36 105h356l35 -105h-427z" />
    <glyph glyph-name="B" unicode="B" horiz-adv-x="638" 
d="M69 0v700h287q73 0 123 -23t75.5 -63.5t25.5 -93.5t-23 -89t-60.5 -55.5t-82.5 -22.5l16 11q48 -2 85.5 -25.5t59 -62.5t21.5 -85q0 -56 -27 -99t-78 -67.5t-125 -24.5h-297zM204 110h140q55 0 85 25t30 72t-31 73.5t-86 26.5h-138v-197zM204 408h130q53 0 80.5 24
t27.5 68q0 43 -27.5 67.5t-81.5 24.5h-129v-184z" />
    <glyph glyph-name="C" unicode="C" horiz-adv-x="738" 
d="M383 -12q-105 0 -180.5 45.5t-116 127t-40.5 188.5t40.5 189t116 128t180.5 46q127 0 208 -63t101 -178h-147q-13 56 -54.5 87.5t-108.5 31.5q-62 0 -106.5 -29.5t-68.5 -83t-24 -128.5q0 -74 24 -128t68.5 -83t106.5 -29q67 0 108 29.5t54 82.5h148q-20 -109 -101 -171
t-208 -62z" />
    <glyph glyph-name="D" unicode="D" horiz-adv-x="707" 
d="M69 0v700h234q122 0 201.5 -43.5t118 -122t38.5 -184.5t-38.5 -184.5t-117.5 -122t-202 -43.5h-234zM204 116h92q86 0 135.5 28t70.5 80.5t21 125.5q0 74 -21 126.5t-70.5 80.5t-135.5 28h-92v-469z" />
    <glyph glyph-name="E" unicode="E" horiz-adv-x="583" 
d="M69 0v700h460v-109h-325v-183h295v-105h-295v-194h325v-109h-460z" />
    <glyph glyph-name="F" unicode="F" horiz-adv-x="556" 
d="M69 0v700h456v-109h-321v-187h257v-106h-257v-298h-135z" />
    <glyph glyph-name="G" unicode="G" horiz-adv-x="778" 
d="M376 -12q-100 0 -174 44.5t-115 125t-41 187.5q0 108 42 190.5t121 129.5t189 47q123 0 204.5 -59t105.5 -164h-151q-15 46 -55.5 72.5t-104.5 26.5q-68 0 -116 -30t-73 -84t-25 -129q0 -76 25 -129t71.5 -80.5t109.5 -27.5q92 0 139.5 49.5t56.5 128.5h-172v101h308
v-387h-125l-10 89v0q-22 -33 -51.5 -55.5t-68.5 -34t-90 -11.5z" />
    <glyph glyph-name="H" unicode="H" horiz-adv-x="714" 
d="M510 0v700h135v-700h-135zM69 0v700h135v-700h-135zM185 303v109h348v-109h-348z" />
    <glyph glyph-name="I" unicode="I" horiz-adv-x="272" 
d="M69 0v700h135v-700h-135z" />
    <glyph glyph-name="J" unicode="J" horiz-adv-x="541" 
d="M256 -12q-68 0 -119.5 26t-79.5 76.5t-28 122.5h135q0 -32 9.5 -55.5t29 -36t50.5 -12.5q30 0 48.5 11.5t27 33t8.5 51.5v495h135v-495q0 -105 -58.5 -161t-157.5 -56z" />
    <glyph glyph-name="K" unicode="K" horiz-adv-x="653" 
d="M69 0v700h135v-277l253 277h166l-257 -277l265 -423h-165l-197 318l-65 -70v-248h-135z" />
    <glyph glyph-name="L" unicode="L" horiz-adv-x="558" 
d="M69 0v700h135v-595h307v-105h-442z" />
    <glyph glyph-name="M" unicode="M" horiz-adv-x="886" 
d="M69 0v700h161l214 -437v0l212 437h161v-700h-135v470v0l-185 -372h-107l-186 372v0v-470h-135z" />
    <glyph glyph-name="N" unicode="N" horiz-adv-x="729" 
d="M69 0v700h135l322 -483v0v483h135v-700h-135l-322 482v0v-482h-135z" />
    <glyph glyph-name="O" unicode="O" horiz-adv-x="784" 
d="M392 -12q-102 0 -180 46t-122 127.5t-44 188.5t44 188.5t122 127.5t180 46q103 0 181 -46t121.5 -127.5t43.5 -188.5t-43.5 -188.5t-121.5 -127.5t-181 -46zM392 109q64 0 110.5 29.5t72.5 83.5t26 128q0 75 -26 128.5t-72.5 82.5t-110.5 29q-63 0 -110 -29t-73 -82.5
t-26 -128.5q0 -74 26 -128t73 -83.5t110 -29.5z" />
    <glyph glyph-name="P" unicode="P" horiz-adv-x="614" 
d="M69 0v700h262q85 0 141 -29t83 -78t27 -112q0 -58 -26 -107t-82 -79.5t-143 -30.5h-127v-264h-135zM204 373h119q65 0 93.5 29.5t28.5 78.5q0 52 -28.5 80.5t-93.5 28.5h-119v-217z" />
    <glyph glyph-name="Q" unicode="Q" horiz-adv-x="784" 
d="M557 -110l-255 401h155l261 -401h-161zM392 -12q-102 0 -180 46t-122 127.5t-44 188.5t44 188.5t122 127.5t180 46q103 0 181 -46t121.5 -127.5t43.5 -188.5t-43.5 -188.5t-121.5 -127.5t-181 -46zM392 109q64 0 110.5 29.5t72.5 83.5t26 128q0 75 -26 128.5t-72.5 82.5
t-110.5 29q-63 0 -110 -29t-73 -82.5t-26 -128.5q0 -74 26 -128t73 -83.5t110 -29.5z" />
    <glyph glyph-name="R" unicode="R" horiz-adv-x="631" 
d="M69 0v700h261q85 0 140 -29t82 -77.5t27 -107.5q0 -56 -26 -104.5t-81.5 -78t-142.5 -29.5h-125v-274h-135zM432 0l-144 308h146l152 -308h-154zM204 372h118q61 0 90 30t29 79t-28.5 77.5t-90.5 28.5h-118v-215z" />
    <glyph glyph-name="S" unicode="S" horiz-adv-x="604" 
d="M310 -12q-76 0 -135.5 26t-94 76t-35.5 121h143q1 -31 16 -56t41.5 -39.5t63.5 -14.5q32 0 55.5 10.5t36.5 29.5t13 45q0 30 -14.5 50t-40 34t-59 25.5t-70.5 24.5q-83 27 -126.5 72t-43.5 119q0 63 30.5 108t84.5 69t123 24q71 0 124.5 -24.5t85 -70.5t32.5 -108h-144
q-1 23 -13.5 43.5t-34.5 33t-52 12.5q-26 1 -47.5 -8t-34 -26.5t-12.5 -43.5q0 -25 12.5 -42t34.5 -29.5t52 -23t65 -21.5q52 -18 96 -42.5t70 -63.5t26 -103q0 -55 -29 -102t-83.5 -76t-135.5 -29z" />
    <glyph glyph-name="T" unicode="T" horiz-adv-x="597" 
d="M232 0v591h-205v109h543v-109h-204v-591h-134z" />
    <glyph glyph-name="U" unicode="U" horiz-adv-x="685" 
d="M340 -12q-77 0 -140 31t-100 93t-37 158v430h135v-431q0 -52 17 -87.5t49.5 -52.5t77.5 -17q46 0 78.5 17t49.5 52.5t17 87.5v431h135v-430q0 -96 -38 -158t-102.5 -93t-141.5 -31z" />
    <glyph glyph-name="V" unicode="V" horiz-adv-x="706" 
d="M270 0l-255 700h144l194 -562v0l195 562h143l-255 -700h-166z" />
    <glyph glyph-name="W" unicode="W" horiz-adv-x="1018" 
d="M210 0l-184 700h144l122 -547v0l144 547h149l140 -547v0l123 547h145l-189 -700h-161l-134 510v0l-139 -510h-160z" />
    <glyph glyph-name="X" unicode="X" horiz-adv-x="670" 
d="M33 0l221 355l-224 345h156l154 -239v0l141 239h152l-219 -351l225 -349h-156l-155 243v0l-142 -243h-153z" />
    <glyph glyph-name="Y" unicode="Y" horiz-adv-x="635" 
d="M250 0v246l-236 454h153l165 -346h-27l164 346h152l-236 -454v-246h-135z" />
    <glyph glyph-name="Z" unicode="Z" horiz-adv-x="577" 
d="M49 0v104l323 484h-321v112h476v-104l-324 -484h326v-112h-480z" />
    <glyph glyph-name="bracketleft" unicode="[" horiz-adv-x="377" 
d="M69 -173v984h253v-109h-127v-765h127v-110h-253z" />
    <glyph glyph-name="backslash" unicode="\" horiz-adv-x="427" 
d="M404 -114h-131l-250 893h131z" />
    <glyph glyph-name="bracketright" unicode="]" horiz-adv-x="377" 
d="M308 -173h-253v110h127v765h-127v109h253v-984z" />
    <glyph glyph-name="asciicircum" unicode="^" horiz-adv-x="677" 
d="M35 200l239 500h129l239 -500h-136l-167 348v0l-168 -348h-136z" />
    <glyph glyph-name="underscore" unicode="_" horiz-adv-x="725" 
d="M77 -168v129h571v-129h-571z" />
    <glyph glyph-name="grave" unicode="`" horiz-adv-x="235" 
d="M222 547l-222 111l15 103v0l220 -125z" />
    <glyph glyph-name="a" unicode="a" horiz-adv-x="586" 
d="M236 -12q-63 0 -104 20.5t-60.5 55t-19.5 76.5q0 46 23.5 81t71 55t119.5 20h125q0 37 -10 61.5t-31 36.5t-56 12q-38 0 -64.5 -16.5t-32.5 -50.5h-131q5 54 35.5 93.5t81 61.5t112.5 22q71 0 123 -24t80 -69t28 -111v-312h-114l-15 77v0q-11 -20 -26 -36t-35 -28
t-45 -18.5t-55 -6.5zM268 92q26 0 46.5 9.5t35.5 26t23.5 38t11.5 46.5v1h-103q-31 0 -50.5 -7.5t-28.5 -21.5t-9 -32q0 -20 9 -33t26 -20t39 -7z" />
    <glyph glyph-name="b" unicode="b" horiz-adv-x="655" 
d="M364 -12q-39 0 -69.5 10t-54 27.5t-39.5 39.5v0l-15 -65h-120v720h135v-286q24 35 63.5 58.5t98.5 23.5q70 0 124.5 -34.5t86 -94t31.5 -136.5q0 -75 -31.5 -135t-85.5 -94t-124 -34zM332 106q40 0 70.5 18.5t47.5 51t17 75.5t-17 76.5t-47.5 52t-70.5 18.5
q-39 0 -69.5 -18.5t-48 -51.5t-17.5 -76t17.5 -76.5t48 -51.5t69.5 -18z" />
    <glyph glyph-name="c" unicode="c" horiz-adv-x="607" 
d="M310 -12q-76 0 -135 34t-92 93t-33 135q0 78 33 137.5t92 94t135 34.5q97 0 163 -51t84 -140h-143q-9 35 -37.5 55t-67.5 20q-35 0 -62.5 -17.5t-43 -51t-15.5 -79.5q0 -35 9 -62.5t25 -47t38.5 -29.5t48.5 -10t47.5 9t36.5 25.5t21 40.5h143q-18 -87 -84.5 -138.5
t-162.5 -51.5z" />
    <glyph glyph-name="d" unicode="d" horiz-adv-x="655" 
d="M290 -12q-69 0 -123.5 34t-85.5 94t-31 135q0 77 31.5 136.5t87 94t124.5 34.5q54 0 95 -20t66 -57v281h135v-720h-120l-15 69v0q-15 -21 -37.5 -40t-53.5 -30t-73 -11zM322 106q40 0 70.5 18.5t47.5 51.5t17 76t-17 76t-47.5 51.5t-70.5 18.5q-38 0 -69 -18.5
t-48.5 -51.5t-17.5 -75q0 -44 17.5 -77t48 -51.5t69.5 -18.5z" />
    <glyph glyph-name="e" unicode="e" horiz-adv-x="602" 
d="M308 -12q-76 0 -134.5 32.5t-91 91t-32.5 135.5q0 79 32 139.5t90.5 95t135.5 34.5q75 0 131 -33t87 -89t31 -127v-22.5t-2 -25.5h-409v82h275q-3 49 -34.5 77t-78.5 28q-34 0 -63 -15.5t-45.5 -47.5t-16.5 -81v-29q0 -41 15.5 -71.5t43.5 -47t65 -16.5t61.5 16t36.5 41
h138q-14 -47 -47 -85t-81 -60t-107 -22z" />
    <glyph glyph-name="f" unicode="f" horiz-adv-x="371" 
d="M89 0v549q0 63 21 100t60.5 54t92.5 17h62v-115h-42q-32 0 -45.5 -12.5t-13.5 -43.5v-549h-135zM20 391v113h313v-113h-313z" />
    <glyph glyph-name="g" unicode="g" horiz-adv-x="596" 
d="M283 -232q-72 0 -126 17.5t-83.5 53t-29.5 87.5q0 35 18 66t52.5 56.5t86.5 43.5l51 -66q-46 -15 -66.5 -37.5t-20.5 -48.5q0 -23 15.5 -39t42 -23.5t59.5 -7.5q32 0 55.5 8t37 23.5t13.5 36.5q0 27 -19 44t-76 21q-51 4 -90.5 11.5t-69.5 18t-50.5 23.5t-33.5 26v23
l107 115l97 -31l-126 -124l38 66q11 -6 21.5 -11.5t26.5 -10t42 -8.5t66 -7q66 -6 108.5 -25t62.5 -50.5t20 -77.5q0 -45 -24.5 -84.5t-75.5 -64t-129 -24.5zM283 149q-63 0 -108.5 24.5t-70 66t-24.5 92.5t24.5 92.5t70 66.5t108.5 25q64 0 109.5 -25t69.5 -66.5t24 -92.5
t-24 -92.5t-69.5 -66t-109.5 -24.5zM283 252q39 0 63 20t24 59t-24 59.5t-63 20.5q-38 0 -62.5 -20.5t-24.5 -59.5t24.5 -59t62.5 -20zM367 408l-22 96h207v-80z" />
    <glyph glyph-name="h" unicode="h" horiz-adv-x="618" 
d="M66 0v720h135v-291v0q25 39 66.5 63t96.5 24q63 0 106 -26.5t65 -76.5t22 -124v-289h-134v277q0 60 -25 92.5t-79 32.5q-33 0 -60 -16t-42.5 -46.5t-15.5 -72.5v-267h-135z" />
    <glyph glyph-name="i" unicode="i" horiz-adv-x="274" 
d="M69 0v504h135v-504h-135zM137 573q-36 0 -59.5 21.5t-23.5 54.5t23.5 54.5t59.5 21.5q37 0 60.5 -21.5t23.5 -54.5t-23.5 -54.5t-60.5 -21.5z" />
    <glyph glyph-name="j" unicode="j" horiz-adv-x="274" 
d="M-29 -220v115h41q32 0 45.5 13t13.5 42v554h135v-553q0 -62 -21.5 -99.5t-60.5 -54.5t-92 -17h-61zM139 573q-37 0 -60 21.5t-23 54.5t23 54.5t60 21.5t60 -21.5t23 -54.5t-23 -54.5t-60 -21.5z" />
    <glyph glyph-name="k" unicode="k" horiz-adv-x="578" 
d="M396 0l-215 276l193 228h159l-249 -285v107l280 -326h-168zM66 0v720h135v-720h-135z" />
    <glyph glyph-name="l" unicode="l" horiz-adv-x="267" 
d="M66 0v720h135v-720h-135z" />
    <glyph glyph-name="m" unicode="m" horiz-adv-x="941" 
d="M66 0v504h119l11 -67v0q24 36 63.5 57.5t90.5 21.5q38 0 68 -10t53.5 -29t38.5 -48v0q28 41 73 64t98 23q66 0 110 -26.5t66.5 -76.5t22.5 -123v-290h-134v278q0 60 -23.5 92t-72.5 32q-32 0 -57 -16t-38.5 -46t-13.5 -72v-268h-135v278q0 60 -24 92t-74 32
q-31 0 -55.5 -16t-38 -46t-13.5 -72v-268h-135z" />
    <glyph glyph-name="n" unicode="n" horiz-adv-x="617" 
d="M66 0v504h119l10 -82v0q23 42 65.5 68t101.5 26q63 0 106 -26t65.5 -76t22.5 -123v-291h-134v278q0 60 -25.5 92t-78.5 32q-34 0 -60.5 -16t-41.5 -45.5t-15 -71.5v-269h-135z" />
    <glyph glyph-name="o" unicode="o" horiz-adv-x="610" 
d="M304 -12q-72 0 -129.5 33.5t-91 93t-33.5 136.5q0 79 33.5 138.5t91.5 93t130 33.5q73 0 130.5 -33.5t91 -93t33.5 -137.5t-33.5 -137.5t-91.5 -93t-131 -33.5zM304 105q34 0 60.5 16t42 49t15.5 82t-15.5 81.5t-42 49t-59.5 16.5q-32 0 -59 -16.5t-42.5 -49t-15.5 -81.5
t15.5 -82t42 -49t58.5 -16z" />
    <glyph glyph-name="p" unicode="p" horiz-adv-x="655" 
d="M66 -220v724h120l15 -70v0q16 22 38 40.5t52.5 30t71.5 11.5q71 0 125 -35t85.5 -94.5t31.5 -135.5t-32 -135.5t-86 -93.5t-123 -34q-56 0 -96.5 20.5t-66.5 56.5v-285h-135zM332 106q40 0 70.5 18t47.5 51t17 76t-17 76.5t-47.5 52t-70.5 18.5q-39 0 -69.5 -18.5
t-48 -51.5t-17.5 -76t17.5 -76.5t48 -51.5t69.5 -18z" />
    <glyph glyph-name="q" unicode="q" horiz-adv-x="655" 
d="M454 -220v290q-24 -36 -63.5 -59t-97.5 -23q-70 0 -125 34.5t-86.5 94.5t-31.5 135q0 76 31.5 135.5t87 94t124.5 34.5q38 0 68 -9.5t53.5 -27t39.5 -41.5v0l15 66h120v-724h-135zM322 106q40 0 70.5 18.5t47.5 51.5t17 76t-17 76t-47.5 51.5t-70.5 18.5q-38 0 -69 -18.5
t-48.5 -51.5t-17.5 -75q0 -44 17.5 -77t48 -51.5t69.5 -18.5z" />
    <glyph glyph-name="r" unicode="r" horiz-adv-x="409" 
d="M66 0v504h120l13 -93v0q18 33 45.5 56t63 36t78.5 13v-143h-46q-30 0 -55.5 -7t-44.5 -22.5t-29 -42.5t-10 -68v-233h-135z" />
    <glyph glyph-name="s" unicode="s" horiz-adv-x="532" 
d="M272 -12q-69 0 -120 22t-80 61t-33 88h134q5 -19 17 -34.5t32 -24.5t48 -9q27 0 44 7.5t25.5 20.5t8.5 27q0 21 -12 32.5t-35 18.5t-56 14q-36 7 -70.5 17.5t-61.5 26.5t-43 41t-16 62q0 45 24 80.5t70 56.5t111 21q91 0 144 -41t63 -113h-127q-6 23 -26.5 36.5
t-54.5 13.5q-36 0 -55 -13t-19 -34q0 -14 12.5 -25t35.5 -18.5t56 -14.5q58 -12 102 -27.5t69 -44t25 -82.5q0 -48 -26 -85.5t-73.5 -58.5t-112.5 -21z" />
    <glyph glyph-name="t" unicode="t" horiz-adv-x="433" 
d="M293 0q-53 0 -92.5 16.5t-61.5 55t-22 105.5v214h-86v113h86l15 137h120v-137h133v-113h-133v-216q0 -34 15 -47t51 -13h66v-115h-91z" />
    <glyph glyph-name="u" unicode="u" horiz-adv-x="616" 
d="M254 -12q-61 0 -104.5 25.5t-66.5 75t-23 122.5v293h135v-279q0 -61 25.5 -92t78.5 -31q34 0 60 15.5t41.5 45t15.5 72.5v269h134v-504h-118l-11 82v0q-22 -43 -65 -68.5t-102 -25.5z" />
    <glyph glyph-name="v" unicode="v" horiz-adv-x="565" 
d="M201 0l-185 504h142l125 -377v0l125 377h141l-184 -504h-164z" />
    <glyph glyph-name="w" unicode="w" horiz-adv-x="820" 
d="M165 0l-148 504h133l98 -409l-25 1l112 408h150l112 -408l-26 -1l99 409h133l-148 -504h-140l-119 420h28l-119 -420h-140z" />
    <glyph glyph-name="x" unicode="x" horiz-adv-x="571" 
d="M19 0l181 252l-181 252h146l121 -173v0l121 173h145l-181 -252l181 -252h-145l-121 174v0l-121 -174h-146z" />
    <glyph glyph-name="y" unicode="y" horiz-adv-x="604" 
d="M130 -220l122 276h-30l-202 448h147l144 -325v0l130 325h143l-311 -724h-143z" />
    <glyph glyph-name="z" unicode="z" horiz-adv-x="490" 
d="M33 0v108l254 284h-251v112h406v-109l-256 -283h261v-112h-414z" />
    <glyph glyph-name="braceleft" unicode="{" horiz-adv-x="470" 
d="M342 -177q-78 0 -126.5 43t-48.5 126q0 33 5 61t10.5 56.5t5.5 62.5q0 24 -9.5 43.5t-31.5 32t-60 16.5v108q38 4 60 16t31.5 31.5t9.5 43.5q0 34 -5.5 62.5t-10.5 56.5t-5 61q0 83 48.5 125.5t126.5 42.5h65v-112h-40q-35 0 -52.5 -16t-17.5 -52q0 -25 5 -51t9.5 -55.5
t4.5 -66.5q0 -53 -26 -90t-83 -49v-2q57 -12 83 -49.5t26 -90.5q0 -37 -4.5 -66.5t-9.5 -55t-5 -51.5q0 -35 17.5 -52t52.5 -17h40v-112h-65z" />
    <glyph glyph-name="bar" unicode="|" horiz-adv-x="272" 
d="M69 -100v820h135v-820h-135z" />
    <glyph glyph-name="braceright" unicode="}" horiz-adv-x="470" 
d="M129 -177h-66v112h40q36 0 53 17t17 52q0 26 -4.5 51.5t-9 55t-4.5 66.5q0 53 26 90.5t82 49.5v2q-56 12 -82 49t-26 90q0 37 4.5 66.5t9 55.5t4.5 51q0 36 -17 52t-53 16h-40v112h66q78 0 126 -42.5t48 -125.5q0 -33 -5 -61t-10.5 -56.5t-5.5 -62.5q0 -24 9.5 -43.5
t32 -31.5t60.5 -16v-108q-38 -4 -60.5 -16.5t-32 -32t-9.5 -43.5q0 -34 5.5 -62.5t10.5 -56.5t5 -61q0 -83 -48 -126t-126 -43z" />
    <glyph glyph-name="asciitilde" unicode="~" horiz-adv-x="579" 
d="M377 224q-32 0 -56.5 10.5t-45.5 24t-40.5 23.5t-41.5 10q-26 0 -42 -17.5t-21 -49.5h-101q10 65 33.5 106.5t59 61t78.5 19.5q32 0 57 -10.5t46 -23.5t40.5 -23.5t41.5 -10.5q26 0 42.5 17.5t20.5 49.5h101q-8 -65 -32 -106t-59.5 -61t-80.5 -20z" />
    <glyph glyph-name="uni00A0" unicode="&#xa0;" horiz-adv-x="235" 
 />
    <glyph glyph-name="exclamdown" unicode="&#xa1;" horiz-adv-x="309" 
d="M97 283h115l15 -472h-145zM155 516q37 0 60 -23t23 -55q0 -33 -23 -56t-60 -23t-60.5 23t-23.5 56q0 32 23.5 55t60.5 23z" />
    <glyph glyph-name="cent" unicode="&#xa2;" horiz-adv-x="607" 
d="M248 -104v172h124v-172h-124zM248 436v172h124v-172h-124zM310 -12q-76 0 -135 34t-92 93t-33 135q0 78 33 137.5t92 94t135 34.5q97 0 163 -51t84 -140h-143q-9 35 -37.5 55t-67.5 20q-35 0 -62.5 -17.5t-43 -51t-15.5 -79.5q0 -35 9 -62.5t25 -47t38.5 -29.5t48.5 -10
t47.5 9t36.5 25.5t21 40.5h143q-18 -87 -84.5 -138.5t-162.5 -51.5z" />
    <glyph glyph-name="sterling" unicode="&#xa3;" horiz-adv-x="627" 
d="M76 0v78q26 26 44 53t27.5 59t9.5 74q0 28 -8 55t-19 55.5t-18.5 59.5t-7.5 65q0 66 29 113.5t81 73.5t120 26q76 0 126.5 -29.5t77 -78.5t29.5 -110h-125q-1 46 -28 76.5t-78 30.5q-28 0 -52 -12t-38 -35.5t-14 -59.5q0 -25 8 -52.5t18.5 -56t18 -59t7.5 -61.5
q0 -41 -15.5 -81.5t-53.5 -75.5h355v-108h-494zM41 297v91h402v-91h-402z" />
    <glyph glyph-name="currency" unicode="&#xa4;" horiz-adv-x="560" 
d="M280 118q-56 0 -99.5 22t-68.5 62.5t-25 95.5t25.5 95t69.5 61.5t99 21.5q56 0 100 -21.5t69 -61.5t25 -95t-25.5 -95.5t-69.5 -62.5t-100 -22zM118 78l-55 57l92 92l66 -46zM442 78l-91 91l59 54l88 -88zM281 204q20 0 39 9.5t31 30t12 53.5q0 34 -12 54.5t-30.5 30
t-40.5 9.5q-21 0 -39.5 -9.5t-30.5 -30t-12 -54.5q0 -33 11.5 -53.5t30.5 -30t41 -9.5zM152 373l-89 89l55 57l96 -96zM400 365l-54 57l96 97l56 -57z" />
    <glyph glyph-name="yen" unicode="&#xa5;" horiz-adv-x="650" 
d="M58 151v92h535v-92h-535zM283 319h-225v92h221zM396 319l4 92h193v-92h-197zM258 0v246l-236 454h153l165 -346h-27l164 346h152l-236 -454v-246h-135z" />
    <glyph glyph-name="brokenbar" unicode="&#xa6;" horiz-adv-x="272" 
d="M69 395v325h135v-325h-135zM69 -100v325h135v-325h-135z" />
    <glyph glyph-name="section" unicode="&#xa7;" horiz-adv-x="617" 
d="M304 -232q-70 0 -124 24.5t-85 70.5t-33 108h145q1 -23 13 -43.5t34 -33t52 -12.5q41 -1 67.5 19t26.5 59q0 25 -12.5 41t-34.5 27t-51.5 20.5t-64.5 21.5q-52 17 -96 43t-70 65.5t-26 99.5q0 39 14 74.5t41 63.5q-13 19 -20 42.5t-7 52.5q0 63 30.5 108t84.5 69t122 24
q72 0 125.5 -24.5t85 -70.5t32.5 -108h-144q-1 23 -13 43.5t-34 33t-53 12.5q-40 1 -67 -19t-27 -59q0 -25 12.5 -41t34.5 -27t52 -21t65 -21q52 -18 96 -43.5t70 -64.5t26 -100q0 -39 -14 -74.5t-42 -63.5q14 -19 20.5 -42.5t6.5 -52.5q0 -61 -30.5 -106.5t-84 -70
t-123.5 -24.5zM407 139q10 10 15 24t5 30q0 26 -11.5 44t-33.5 31.5t-52 25.5t-66 25q-18 6 -31.5 11.5t-24.5 10.5q-10 -10 -15 -23.5t-5 -30.5q0 -20 7.5 -35t21.5 -27.5t34 -22.5t45.5 -20t54.5 -21q15 -5 29 -10.5t27 -11.5z" />
    <glyph glyph-name="dieresis" unicode="&#xa8;" horiz-adv-x="339" 
d="M261 563q-27 0 -45 18.5t-18 45.5t18 45.5t45 18.5t45.5 -18.5t18.5 -45.5t-18.5 -45.5t-45.5 -18.5zM77 563q-26 0 -44.5 18.5t-18.5 45.5t18.5 45.5t44.5 18.5q28 0 46.5 -18.5t18.5 -45.5t-18.5 -45.5t-46.5 -18.5z" />
    <glyph glyph-name="copyright" unicode="&#xa9;" horiz-adv-x="785" 
d="M393 -6q-104 0 -182.5 46t-123 127t-44.5 185q0 105 44.5 185.5t123 126t182.5 45.5t182.5 -45.5t122.5 -126t44 -185.5q0 -104 -44 -185t-122.5 -127t-182.5 -46zM393 124q-61 0 -111.5 27.5t-79 79t-28.5 121.5q0 71 28.5 122t79 78.5t111.5 27.5q78 0 134.5 -42
t73.5 -117h-118q-10 31 -34.5 48.5t-58.5 17.5q-30 0 -53.5 -15t-37.5 -45t-14 -75t14 -75t37.5 -45t53.5 -15q37 0 59.5 17.5t33.5 48.5h118q-17 -72 -73.5 -115.5t-134.5 -43.5zM393 42q92 0 159 39.5t103 109t36 161.5q0 94 -36.5 163t-103 107.5t-158.5 38.5t-159 -38.5
t-103 -107.5t-36 -163q0 -92 36 -162t103 -109t159 -39z" />
    <glyph glyph-name="ordfeminine" unicode="&#xaa;" horiz-adv-x="506" 
d="M220 348q-48 0 -86 22.5t-60 63.5t-22 96t22 95.5t59.5 62.5t83.5 22q47 0 78 -16.5t48 -42.5l8 54h95v-352h-95l-8 53v0q-16 -25 -47 -41.5t-76 -16.5zM250 429q26 0 46.5 12t33.5 34.5t13 53.5q0 48 -27.5 73.5t-65.5 25.5q-37 0 -64.5 -25.5t-27.5 -73.5t27.5 -74
t64.5 -26z" />
    <glyph glyph-name="guillemotleft" unicode="&#xab;" horiz-adv-x="514" 
d="M337 120l-90 175l90 175h127l-93 -175l93 -175h-127zM131 120l-89 175l89 175h127l-92 -175l92 -175h-127z" />
    <glyph glyph-name="logicalnot" unicode="&#xac;" horiz-adv-x="579" 
d="M453 198v136h-461v104h596v-240h-135z" />
    <glyph glyph-name="registered" unicode="&#xae;" horiz-adv-x="510" 
d="M255 291q-61 0 -109 27.5t-75 74.5t-27 108q0 62 27 109.5t75 74.5t109 27q62 0 109 -27t74 -74.5t27 -109.5q0 -61 -27 -108t-74 -74.5t-109 -27.5zM288 397l-56 96h65l62 -96h-71zM255 339q49 0 84.5 20.5t55 57.5t19.5 84q0 49 -19.5 85.5t-55 57t-84.5 20.5
q-48 0 -84 -20.5t-55.5 -57t-19.5 -85.5q0 -47 19.5 -84t55.5 -57.5t84 -20.5zM169 397v213h104q35 0 55.5 -18t20.5 -49t-20.5 -49.5t-55.5 -18.5h-42v-78h-62zM230 520h35q9 0 15 4.5t6 14.5q0 11 -6 15t-15 4h-35v-38z" />
    <glyph glyph-name="macron" unicode="&#xaf;" horiz-adv-x="401" 
d="M11 577v95h379v-95h-379z" />
    <glyph glyph-name="degree" unicode="&#xb0;" horiz-adv-x="363" 
d="M181 423q-38 0 -71 17.5t-53 50t-20 75.5q0 45 20.5 78t53.5 50.5t71 17.5q39 0 71.5 -17.5t52 -50.5t19.5 -78q0 -43 -20 -75.5t-52.5 -50t-71.5 -17.5zM181 508q20 0 38 15t18 45t-17.5 44.5t-37.5 14.5t-38 -15t-18 -44q0 -30 17.5 -45t37.5 -15z" />
    <glyph glyph-name="plusminus" unicode="&#xb1;" horiz-adv-x="579" 
d="M42 0v103h495v-103h-495zM232 169v363h115v-363h-115zM42 294v113h495v-113h-495z" />
    <glyph glyph-name="uni00B2" unicode="&#xb2;" horiz-adv-x="361" 
d="M37 352v76l118 82q29 20 45 40.5t16 45.5q0 20 -10.5 30.5t-26.5 10.5q-19 0 -29.5 -12t-13.5 -33h-102q3 52 42.5 86t111.5 34q46 0 76.5 -15.5t45.5 -40.5t15 -53q0 -39 -26.5 -67.5t-82.5 -60.5l-69 -42h177v-81h-287z" />
    <glyph glyph-name="uni00B3" unicode="&#xb3;" horiz-adv-x="356" 
d="M177 348q-76 0 -114.5 31t-42.5 84h105q2 -15 8 -24t16.5 -13t22.5 -4q21 0 33 10.5t12 30.5q0 21 -14 32t-37 11h-39v50h35q24 0 37.5 10.5t13.5 31.5q0 19 -12 29t-33 10q-19 0 -30.5 -9.5t-15.5 -27.5h-97q2 30 19 56t50.5 41t84.5 15q63 0 103 -29.5t40 -73.5
q0 -31 -17.5 -50.5t-48.5 -27.5v-2q33 -10 52 -30t19 -52q0 -44 -40.5 -71.5t-109.5 -27.5z" />
    <glyph glyph-name="acute" unicode="&#xb4;" horiz-adv-x="235" 
d="M12 547l-12 89l219 125v0l16 -103z" />
    <glyph glyph-name="uni00B5" unicode="&#xb5;" horiz-adv-x="624" 
d="M66 -220v716h135v-266q0 -62 25 -95t80 -33q34 0 60.5 16.5t41.5 47.5t15 74v256h135v-496h-118l-11 83v0q-23 -43 -66 -69t-103 -26q-17 0 -31.5 3.5t-27.5 10.5v-222h-135z" />
    <glyph glyph-name="paragraph" unicode="&#xb6;" horiz-adv-x="652" 
d="M287 -100v381h-18q-83 0 -135.5 29t-77 76.5t-24.5 103.5q0 57 25 104.5t77.5 76.5t134.5 29h315v-800h-114v696h-70v-696h-113z" />
    <glyph glyph-name="periodcentered" unicode="&#xb7;" horiz-adv-x="252" 
d="M127 248q-38 0 -61 22.5t-23 55.5t23 55.5t61 22.5q36 0 59 -22.5t23 -55.5t-23 -55.5t-59 -22.5z" />
    <glyph glyph-name="cedilla" unicode="&#xb8;" horiz-adv-x="266" 
d="M0 -264v77h115q25 0 38 8.5t13 26.5t-13 26t-38 8h-62v125h84v-55q33 1 62.5 -10t48 -34.5t18.5 -61.5q0 -37 -18.5 -61.5t-48 -36.5t-64.5 -12h-135z" />
    <glyph glyph-name="uni00B9" unicode="&#xb9;" horiz-adv-x="237" 
d="M93 352v255l-70 -16v64l115 49h59v-352h-104z" />
    <glyph glyph-name="ordmasculine" unicode="&#xba;" horiz-adv-x="486" 
d="M242 349q-57 0 -100 23t-67.5 64t-24.5 95t24.5 95t68 63.5t100.5 22.5t100.5 -22.5t68 -63.5t24.5 -95t-24.5 -95t-68.5 -64t-101 -23zM242 430q24 0 44 11.5t32 34t12 54.5q0 34 -12 56.5t-31.5 34t-44.5 11.5q-24 0 -43.5 -11.5t-31 -34t-11.5 -56.5q0 -32 11.5 -54.5
t31 -34t43.5 -11.5z" />
    <glyph glyph-name="guillemotright" unicode="&#xbb;" horiz-adv-x="514" 
d="M177 120h-127l92 175l-92 175h127l89 -175zM383 120h-127l92 175l-92 175h127l89 -175z" />
    <glyph glyph-name="onequarter" unicode="&#xbc;" horiz-adv-x="838" 
d="M93 352v255l-70 -16v64l115 49h59v-352h-104zM133 0l393 700h132l-394 -700h-131zM679 0v61h-165v68l154 219h111v-217h37v-70h-37v-61h-100zM616 131h71v107v0z" />
    <glyph glyph-name="onehalf" unicode="&#xbd;" horiz-adv-x="873" 
d="M93 352v255l-70 -16v64l115 49h59v-352h-104zM133 0l393 700h132l-394 -700h-131zM549 0v76l118 82q29 20 45 40.5t16 45.5q0 20 -10.5 30.5t-26.5 10.5q-19 0 -29.5 -12t-13.5 -33h-102q3 52 42.5 86t111.5 34q46 0 76.5 -15.5t45.5 -40.5t15 -53q0 -39 -26.5 -67.5
t-82.5 -60.5l-69 -42h177v-81h-287z" />
    <glyph glyph-name="threequarters" unicode="&#xbe;" horiz-adv-x="925" 
d="M177 348q-76 0 -114.5 31t-42.5 84h105q2 -15 8 -24t16.5 -13t22.5 -4q21 0 33 10.5t12 30.5q0 21 -14 32t-37 11h-39v50h35q24 0 37.5 10.5t13.5 31.5q0 19 -12 29t-33 10q-19 0 -30.5 -9.5t-15.5 -27.5h-97q2 30 19 56t50.5 41t84.5 15q63 0 103 -29.5t40 -73.5
q0 -31 -17.5 -50.5t-48.5 -27.5v-2q33 -10 52 -30t19 -52q0 -44 -40.5 -71.5t-109.5 -27.5zM220 0l393 700h132l-394 -700h-131zM766 0v61h-165v68l154 219h111v-217h37v-70h-37v-61h-100zM703 131h71v107v0z" />
    <glyph glyph-name="questiondown" unicode="&#xbf;" horiz-adv-x="538" 
d="M396 284l4 -161h-48q-38 0 -71 -4.5t-57.5 -16.5t-38.5 -35t-14 -58q0 -30 13 -52.5t35.5 -34.5t54.5 -12q33 0 56 12t35.5 34t12.5 52h128q1 -60 -27 -107.5t-81 -74.5t-126 -27q-67 0 -119.5 24.5t-82.5 71.5t-30 114q0 69 30 113.5t83 67t120 22.5l3 72h120zM335 516
q37 0 60.5 -23t23.5 -55q0 -33 -23.5 -56t-60.5 -23q-36 0 -59 23t-23 56q0 32 23 55t59 23z" />
    <glyph glyph-name="Agrave" unicode="&#xc0;" horiz-adv-x="709" 
d="M22 0l256 700h153l255 -700h-143l-189 546v0l-190 -546h-142zM135 159l36 105h356l35 -105h-427zM459 743l-222 112l15 103v0l220 -126z" />
    <glyph glyph-name="Aacute" unicode="&#xc1;" horiz-adv-x="709" 
d="M22 0l256 700h153l255 -700h-143l-189 546v0l-190 -546h-142zM135 159l36 105h356l35 -105h-427zM249 743l-12 89l219 126v0l16 -103z" />
    <glyph glyph-name="Acircumflex" unicode="&#xc2;" horiz-adv-x="709" 
d="M22 0l256 700h153l255 -700h-143l-189 546v0l-190 -546h-142zM135 159l36 105h356l35 -105h-427zM207 745v97l148 79l147 -79v-97l-147 83z" />
    <glyph glyph-name="Atilde" unicode="&#xc3;" horiz-adv-x="709" 
d="M22 0l256 700h153l255 -700h-143l-189 546v0l-190 -546h-142zM135 159l36 105h356l35 -105h-427zM418 751q-29 0 -49.5 11.5t-37.5 23t-38 11.5q-16 0 -27.5 -11t-15.5 -34h-71q11 67 42.5 97.5t77.5 30.5q29 0 49 -11.5t37.5 -23t38.5 -11.5q17 0 28.5 11.5t14.5 33.5
h71q-10 -66 -41.5 -97t-78.5 -31z" />
    <glyph glyph-name="Adieresis" unicode="&#xc4;" horiz-adv-x="709" 
d="M22 0l256 700h153l255 -700h-143l-189 546v0l-190 -546h-142zM135 159l36 105h356l35 -105h-427zM262 767q-26 0 -44.5 18.5t-18.5 45.5t18.5 45.5t44.5 18.5q28 0 46.5 -18.5t18.5 -45.5t-18.5 -45.5t-46.5 -18.5zM446 767q-27 0 -45.5 18.5t-18.5 45.5t18.5 45.5
t45.5 18.5t45.5 -18.5t18.5 -45.5t-18.5 -45.5t-45.5 -18.5z" />
    <glyph glyph-name="Aring" unicode="&#xc5;" horiz-adv-x="709" 
d="M22 0l256 700h153l255 -700h-143l-189 546v0l-190 -546h-142zM135 159l36 105h356l35 -105h-427zM355 749q-47 0 -81 30.5t-34 83.5t34 83t81 30q48 0 82 -30t34 -83t-34 -83.5t-82 -30.5zM355 809q22 0 37 15t15 39q0 25 -15 39t-37 14q-21 0 -36 -14t-15 -39
q0 -24 15 -39t36 -15z" />
    <glyph glyph-name="AE" unicode="&#xc6;" horiz-adv-x="945" 
d="M22 0l376 700h493v-107h-268v-185h238v-104h-238v-197h268v-107h-403v597v0l-319 -597h-147zM166 135l56 104h330v-104h-386z" />
    <glyph glyph-name="Ccedilla" unicode="&#xc7;" horiz-adv-x="738" 
d="M383 -12q-105 0 -180.5 45.5t-116 127t-40.5 188.5t40.5 189t116 128t180.5 46q127 0 208 -63t101 -178h-147q-13 56 -54.5 87.5t-108.5 31.5q-62 0 -106.5 -29.5t-68.5 -83t-24 -128.5q0 -74 24 -128t68.5 -83t106.5 -29q67 0 108 29.5t54 82.5h148q-20 -109 -101 -171
t-208 -62zM280 -267v77h115q25 0 38 8.5t13 26.5t-13 26t-38 8h-62v125h84v-55q33 1 62.5 -10t48 -34.5t18.5 -61.5q0 -37 -18.5 -61.5t-48 -36.5t-64.5 -12h-135z" />
    <glyph glyph-name="Egrave" unicode="&#xc8;" horiz-adv-x="583" 
d="M69 0v700h460v-109h-325v-183h295v-105h-295v-194h325v-109h-460zM404 743l-222 112l15 103v0l220 -126z" />
    <glyph glyph-name="Eacute" unicode="&#xc9;" horiz-adv-x="583" 
d="M69 0v700h460v-109h-325v-183h295v-105h-295v-194h325v-109h-460zM194 743l-12 89l219 126v0l16 -103z" />
    <glyph glyph-name="Ecircumflex" unicode="&#xca;" horiz-adv-x="583" 
d="M69 0v700h460v-109h-325v-183h295v-105h-295v-194h325v-109h-460zM152 745v97l148 79l147 -79v-97l-147 83z" />
    <glyph glyph-name="Edieresis" unicode="&#xcb;" horiz-adv-x="583" 
d="M69 0v700h460v-109h-325v-183h295v-105h-295v-194h325v-109h-460zM207 767q-26 0 -44.5 18.5t-18.5 45.5t18.5 45.5t44.5 18.5q28 0 46.5 -18.5t18.5 -45.5t-18.5 -45.5t-46.5 -18.5zM391 767q-27 0 -45.5 18.5t-18.5 45.5t18.5 45.5t45.5 18.5t45.5 -18.5t18.5 -45.5
t-18.5 -45.5t-45.5 -18.5z" />
    <glyph glyph-name="Igrave" unicode="&#xcc;" horiz-adv-x="272" 
d="M69 0v700h135v-700h-135zM241 743l-222 112l15 103v0l220 -126z" />
    <glyph glyph-name="Iacute" unicode="&#xcd;" horiz-adv-x="272" 
d="M69 0v700h135v-700h-135zM31 743l-12 89l219 126v0l16 -103z" />
    <glyph glyph-name="Icircumflex" unicode="&#xce;" horiz-adv-x="272" 
d="M69 0v700h135v-700h-135zM-11 745v97l148 79l147 -79v-97l-147 83z" />
    <glyph glyph-name="Idieresis" unicode="&#xcf;" horiz-adv-x="272" 
d="M69 0v700h135v-700h-135zM44 767q-26 0 -44.5 18.5t-18.5 45.5t18.5 45.5t44.5 18.5q28 0 46.5 -18.5t18.5 -45.5t-18.5 -45.5t-46.5 -18.5zM228 767q-27 0 -45.5 18.5t-18.5 45.5t18.5 45.5t45.5 18.5t45.5 -18.5t18.5 -45.5t-18.5 -45.5t-45.5 -18.5z" />
    <glyph glyph-name="Eth" unicode="&#xd0;" horiz-adv-x="719" 
d="M6 293v115h381v-115h-381zM80 0v700h235q122 0 201.5 -43.5t118 -122t38.5 -184.5t-38.5 -184.5t-118 -122t-201.5 -43.5h-235zM215 116h93q86 0 135.5 28t70.5 80.5t21 125.5q0 74 -21 126.5t-70.5 80.5t-135.5 28h-93v-469z" />
    <glyph glyph-name="Ntilde" unicode="&#xd1;" horiz-adv-x="729" 
d="M69 0v700h135l322 -483v0v483h135v-700h-135l-322 482v0v-482h-135zM428 751q-29 0 -49.5 11.5t-37.5 23t-38 11.5q-16 0 -27.5 -11t-15.5 -34h-71q11 67 42.5 97.5t77.5 30.5q29 0 49 -11.5t37.5 -23t38.5 -11.5q17 0 28.5 11.5t14.5 33.5h71q-10 -66 -41.5 -97
t-78.5 -31z" />
    <glyph glyph-name="Ograve" unicode="&#xd2;" horiz-adv-x="784" 
d="M392 -12q-102 0 -180 46t-122 127.5t-44 188.5t44 188.5t122 127.5t180 46q103 0 181 -46t121.5 -127.5t43.5 -188.5t-43.5 -188.5t-121.5 -127.5t-181 -46zM392 109q64 0 110.5 29.5t72.5 83.5t26 128q0 75 -26 128.5t-72.5 82.5t-110.5 29q-63 0 -110 -29t-73 -82.5
t-26 -128.5q0 -74 26 -128t73 -83.5t110 -29.5zM497 743l-222 112l15 103v0l220 -126z" />
    <glyph glyph-name="Oacute" unicode="&#xd3;" horiz-adv-x="784" 
d="M392 -12q-102 0 -180 46t-122 127.5t-44 188.5t44 188.5t122 127.5t180 46q103 0 181 -46t121.5 -127.5t43.5 -188.5t-43.5 -188.5t-121.5 -127.5t-181 -46zM392 109q64 0 110.5 29.5t72.5 83.5t26 128q0 75 -26 128.5t-72.5 82.5t-110.5 29q-63 0 -110 -29t-73 -82.5
t-26 -128.5q0 -74 26 -128t73 -83.5t110 -29.5zM287 743l-12 89l219 126v0l16 -103z" />
    <glyph glyph-name="Ocircumflex" unicode="&#xd4;" horiz-adv-x="784" 
d="M392 -12q-102 0 -180 46t-122 127.5t-44 188.5t44 188.5t122 127.5t180 46q103 0 181 -46t121.5 -127.5t43.5 -188.5t-43.5 -188.5t-121.5 -127.5t-181 -46zM392 109q64 0 110.5 29.5t72.5 83.5t26 128q0 75 -26 128.5t-72.5 82.5t-110.5 29q-63 0 -110 -29t-73 -82.5
t-26 -128.5q0 -74 26 -128t73 -83.5t110 -29.5zM245 745v97l148 79l147 -79v-97l-147 83z" />
    <glyph glyph-name="Otilde" unicode="&#xd5;" horiz-adv-x="784" 
d="M392 -12q-102 0 -180 46t-122 127.5t-44 188.5t44 188.5t122 127.5t180 46q103 0 181 -46t121.5 -127.5t43.5 -188.5t-43.5 -188.5t-121.5 -127.5t-181 -46zM392 109q64 0 110.5 29.5t72.5 83.5t26 128q0 75 -26 128.5t-72.5 82.5t-110.5 29q-63 0 -110 -29t-73 -82.5
t-26 -128.5q0 -74 26 -128t73 -83.5t110 -29.5zM456 751q-29 0 -49.5 11.5t-37.5 23t-38 11.5q-16 0 -27.5 -11t-15.5 -34h-71q11 67 42.5 97.5t77.5 30.5q29 0 49 -11.5t37.5 -23t38.5 -11.5q17 0 28.5 11.5t14.5 33.5h71q-10 -66 -41.5 -97t-78.5 -31z" />
    <glyph glyph-name="Odieresis" unicode="&#xd6;" horiz-adv-x="784" 
d="M392 -12q-102 0 -180 46t-122 127.5t-44 188.5t44 188.5t122 127.5t180 46q103 0 181 -46t121.5 -127.5t43.5 -188.5t-43.5 -188.5t-121.5 -127.5t-181 -46zM392 109q64 0 110.5 29.5t72.5 83.5t26 128q0 75 -26 128.5t-72.5 82.5t-110.5 29q-63 0 -110 -29t-73 -82.5
t-26 -128.5q0 -74 26 -128t73 -83.5t110 -29.5zM300 767q-26 0 -44.5 18.5t-18.5 45.5t18.5 45.5t44.5 18.5q28 0 46.5 -18.5t18.5 -45.5t-18.5 -45.5t-46.5 -18.5zM484 767q-27 0 -45.5 18.5t-18.5 45.5t18.5 45.5t45.5 18.5t45.5 -18.5t18.5 -45.5t-18.5 -45.5
t-45.5 -18.5z" />
    <glyph glyph-name="multiply" unicode="&#xd7;" horiz-adv-x="579" 
d="M166 87l-80 79l124 124l-121 121l79 79l122 -121l123 124l79 -79l-123 -124l121 -121l-79 -80l-122 122z" />
    <glyph glyph-name="Oslash" unicode="&#xd8;" horiz-adv-x="777" 
d="M26 0l599 700h127l-598 -700h-128zM391 -12q-102 0 -180 46t-122 127.5t-44 188.5t44 188.5t122 127.5t180 46q103 0 181.5 -46t122 -127.5t43.5 -188.5t-43.5 -188.5t-122 -127.5t-181.5 -46zM391 109q64 0 111 29.5t72.5 83.5t25.5 128q0 75 -25.5 128.5t-72.5 82.5
t-111 29q-63 0 -110 -29t-72.5 -82.5t-25.5 -128.5q0 -74 25.5 -128t72.5 -83.5t110 -29.5z" />
    <glyph glyph-name="Ugrave" unicode="&#xd9;" horiz-adv-x="685" 
d="M340 -12q-77 0 -140 31t-100 93t-37 158v430h135v-431q0 -52 17 -87.5t49.5 -52.5t77.5 -17q46 0 78.5 17t49.5 52.5t17 87.5v431h135v-430q0 -96 -38 -158t-102.5 -93t-141.5 -31zM447 743l-222 112l15 103v0l220 -126z" />
    <glyph glyph-name="Uacute" unicode="&#xda;" horiz-adv-x="685" 
d="M340 -12q-77 0 -140 31t-100 93t-37 158v430h135v-431q0 -52 17 -87.5t49.5 -52.5t77.5 -17q46 0 78.5 17t49.5 52.5t17 87.5v431h135v-430q0 -96 -38 -158t-102.5 -93t-141.5 -31zM237 743l-12 89l219 126v0l16 -103z" />
    <glyph glyph-name="Ucircumflex" unicode="&#xdb;" horiz-adv-x="685" 
d="M340 -12q-77 0 -140 31t-100 93t-37 158v430h135v-431q0 -52 17 -87.5t49.5 -52.5t77.5 -17q46 0 78.5 17t49.5 52.5t17 87.5v431h135v-430q0 -96 -38 -158t-102.5 -93t-141.5 -31zM195 745v97l148 79l147 -79v-97l-147 83z" />
    <glyph glyph-name="Udieresis" unicode="&#xdc;" horiz-adv-x="685" 
d="M340 -12q-77 0 -140 31t-100 93t-37 158v430h135v-431q0 -52 17 -87.5t49.5 -52.5t77.5 -17q46 0 78.5 17t49.5 52.5t17 87.5v431h135v-430q0 -96 -38 -158t-102.5 -93t-141.5 -31zM250 767q-26 0 -44.5 18.5t-18.5 45.5t18.5 45.5t44.5 18.5q28 0 46.5 -18.5t18.5 -45.5
t-18.5 -45.5t-46.5 -18.5zM434 767q-27 0 -45.5 18.5t-18.5 45.5t18.5 45.5t45.5 18.5t45.5 -18.5t18.5 -45.5t-18.5 -45.5t-45.5 -18.5z" />
    <glyph glyph-name="Yacute" unicode="&#xdd;" horiz-adv-x="635" 
d="M250 0v246l-236 454h153l165 -346h-27l164 346h152l-236 -454v-246h-135zM212 743l-12 89l219 126v0l16 -103z" />
    <glyph glyph-name="Thorn" unicode="&#xde;" horiz-adv-x="614" 
d="M69 0v700h135v-134h128q84 0 140 -28t83 -77t27 -112q0 -57 -26 -106t-81.5 -79t-142.5 -30h-128v-134h-135zM204 243h120q64 0 92.5 29t28.5 77q0 51 -28.5 79t-92.5 28h-120v-213z" />
    <glyph glyph-name="germandbls" unicode="&#xdf;" horiz-adv-x="711" 
d="M475 -10q-92 0 -150 48.5t-68 137.5h126q4 -39 27.5 -62.5t62.5 -23.5q36 0 55.5 16.5t19.5 45.5t-18.5 47.5t-71.5 36.5q-81 29 -117 58.5t-36 75.5q0 27 12.5 45.5t31 32.5t37 26.5t31 28.5t12.5 37q0 38 -29 58.5t-80 20.5q-61 0 -90.5 -33t-29.5 -91v-495h-133v506
q0 67 30.5 118t89 79.5t139.5 28.5q75 0 128 -23.5t81 -63.5t28 -89q0 -31 -12 -52.5t-30.5 -36.5t-37 -26.5t-31 -23.5t-12.5 -26q0 -12 8 -22t29 -20.5t63 -25.5q75 -27 107.5 -65t32.5 -97q0 -50 -25 -89t-71 -60.5t-109 -21.5z" />
    <glyph glyph-name="agrave" unicode="&#xe0;" horiz-adv-x="586" 
d="M236 -12q-63 0 -104 20.5t-60.5 55t-19.5 76.5q0 46 23.5 81t71 55t119.5 20h125q0 37 -10 61.5t-31 36.5t-56 12q-38 0 -64.5 -16.5t-32.5 -50.5h-131q5 54 35.5 93.5t81 61.5t112.5 22q71 0 123 -24t80 -69t28 -111v-312h-114l-15 77v0q-11 -20 -26 -36t-35 -28
t-45 -18.5t-55 -6.5zM268 92q26 0 46.5 9.5t35.5 26t23.5 38t11.5 46.5v1h-103q-31 0 -50.5 -7.5t-28.5 -21.5t-9 -32q0 -20 9 -33t26 -20t39 -7zM394 547l-222 111l15 103v0l220 -125z" />
    <glyph glyph-name="aacute" unicode="&#xe1;" horiz-adv-x="586" 
d="M236 -12q-63 0 -104 20.5t-60.5 55t-19.5 76.5q0 46 23.5 81t71 55t119.5 20h125q0 37 -10 61.5t-31 36.5t-56 12q-38 0 -64.5 -16.5t-32.5 -50.5h-131q5 54 35.5 93.5t81 61.5t112.5 22q71 0 123 -24t80 -69t28 -111v-312h-114l-15 77v0q-11 -20 -26 -36t-35 -28
t-45 -18.5t-55 -6.5zM268 92q26 0 46.5 9.5t35.5 26t23.5 38t11.5 46.5v1h-103q-31 0 -50.5 -7.5t-28.5 -21.5t-9 -32q0 -20 9 -33t26 -20t39 -7zM184 547l-12 89l219 125v0l16 -103z" />
    <glyph glyph-name="acircumflex" unicode="&#xe2;" horiz-adv-x="586" 
d="M236 -12q-63 0 -104 20.5t-60.5 55t-19.5 76.5q0 46 23.5 81t71 55t119.5 20h125q0 37 -10 61.5t-31 36.5t-56 12q-38 0 -64.5 -16.5t-32.5 -50.5h-131q5 54 35.5 93.5t81 61.5t112.5 22q71 0 123 -24t80 -69t28 -111v-312h-114l-15 77v0q-11 -20 -26 -36t-35 -28
t-45 -18.5t-55 -6.5zM268 92q26 0 46.5 9.5t35.5 26t23.5 38t11.5 46.5v1h-103q-31 0 -50.5 -7.5t-28.5 -21.5t-9 -32q0 -20 9 -33t26 -20t39 -7zM142 550v96l148 80l147 -80v-96l-147 82z" />
    <glyph glyph-name="atilde" unicode="&#xe3;" horiz-adv-x="586" 
d="M236 -12q-63 0 -104 20.5t-60.5 55t-19.5 76.5q0 46 23.5 81t71 55t119.5 20h125q0 37 -10 61.5t-31 36.5t-56 12q-38 0 -64.5 -16.5t-32.5 -50.5h-131q5 54 35.5 93.5t81 61.5t112.5 22q71 0 123 -24t80 -69t28 -111v-312h-114l-15 77v0q-11 -20 -26 -36t-35 -28
t-45 -18.5t-55 -6.5zM268 92q26 0 46.5 9.5t35.5 26t23.5 38t11.5 46.5v1h-103q-31 0 -50.5 -7.5t-28.5 -21.5t-9 -32q0 -20 9 -33t26 -20t39 -7zM348 570q-29 0 -49.5 11t-37.5 22.5t-38 11.5q-16 0 -27.5 -11t-15.5 -34h-71q11 67 42.5 98t77.5 31q29 0 49 -11.5t37.5 -23
t38.5 -11.5q17 0 28.5 11t14.5 34h71q-10 -67 -41.5 -97.5t-78.5 -30.5z" />
    <glyph glyph-name="adieresis" unicode="&#xe4;" horiz-adv-x="586" 
d="M236 -12q-63 0 -104 20.5t-60.5 55t-19.5 76.5q0 46 23.5 81t71 55t119.5 20h125q0 37 -10 61.5t-31 36.5t-56 12q-38 0 -64.5 -16.5t-32.5 -50.5h-131q5 54 35.5 93.5t81 61.5t112.5 22q71 0 123 -24t80 -69t28 -111v-312h-114l-15 77v0q-11 -20 -26 -36t-35 -28
t-45 -18.5t-55 -6.5zM268 92q26 0 46.5 9.5t35.5 26t23.5 38t11.5 46.5v1h-103q-31 0 -50.5 -7.5t-28.5 -21.5t-9 -32q0 -20 9 -33t26 -20t39 -7zM197 570q-26 0 -44.5 18t-18.5 45t18.5 45.5t44.5 18.5q28 0 46.5 -18.5t18.5 -45.5t-18.5 -45t-46.5 -18zM381 570
q-27 0 -45.5 18t-18.5 45t18.5 45.5t45.5 18.5t45.5 -18.5t18.5 -45.5t-18.5 -45t-45.5 -18z" />
    <glyph glyph-name="aring" unicode="&#xe5;" horiz-adv-x="586" 
d="M236 -12q-63 0 -104 20.5t-60.5 55t-19.5 76.5q0 46 23.5 81t71 55t119.5 20h125q0 37 -10 61.5t-31 36.5t-56 12q-38 0 -64.5 -16.5t-32.5 -50.5h-131q5 54 35.5 93.5t81 61.5t112.5 22q71 0 123 -24t80 -69t28 -111v-312h-114l-15 77v0q-11 -20 -26 -36t-35 -28
t-45 -18.5t-55 -6.5zM268 92q26 0 46.5 9.5t35.5 26t23.5 38t11.5 46.5v1h-103q-31 0 -50.5 -7.5t-28.5 -21.5t-9 -32q0 -20 9 -33t26 -20t39 -7zM289 570q-47 0 -81 30t-34 83t34 83.5t81 30.5q48 0 82 -30.5t34 -83.5t-34 -83t-82 -30zM289 629q22 0 37 15t15 39
q0 25 -15 39t-37 14q-21 0 -36 -14t-15 -39q0 -24 15 -39t36 -15z" />
    <glyph glyph-name="ae" unicode="&#xe6;" horiz-adv-x="944" 
d="M246 -12q-64 0 -107.5 20.5t-65 55.5t-21.5 77q0 46 22.5 82t70 56t118.5 20h131q0 36 -10 59.5t-31 35.5t-54 12q-35 0 -61.5 -16.5t-32.5 -48.5h-131q5 53 35 92t79.5 61t110.5 22q59 0 104.5 -18t74.5 -51q32 32 77 50.5t97 18.5q74 0 129.5 -33t87 -89t31.5 -129
q0 -10 -0.5 -22t-2.5 -25h-366q3 -38 19 -64.5t42.5 -41t57.5 -14.5q41 0 66 19t38 48h135q-13 -49 -46 -89.5t-81.5 -64t-109.5 -23.5q-65 0 -118 26.5t-87 72.5q-20 -30 -49.5 -52t-67 -34.5t-84.5 -12.5zM267 92q32 0 57.5 16t42 42.5t21.5 59.5v6h-107q-30 0 -49.5 -7.5
t-28.5 -21.5t-9 -32q0 -20 9 -33.5t25.5 -21.5t38.5 -8zM534 300h229q-3 50 -34 78t-76 28q-29 0 -54 -12t-42 -35t-23 -59z" />
    <glyph glyph-name="ccedilla" unicode="&#xe7;" horiz-adv-x="607" 
d="M310 -12q-76 0 -135 34t-92 93t-33 135q0 78 33 137.5t92 94t135 34.5q97 0 163 -51t84 -140h-143q-9 35 -37.5 55t-67.5 20q-35 0 -62.5 -17.5t-43 -51t-15.5 -79.5q0 -35 9 -62.5t25 -47t38.5 -29.5t48.5 -10t47.5 9t36.5 25.5t21 40.5h143q-18 -87 -84.5 -138.5
t-162.5 -51.5zM215 -267v77h115q25 0 38 8.5t13 26.5t-13 26t-38 8h-62v125h84v-55q33 1 62.5 -10t48 -34.5t18.5 -61.5q0 -37 -18.5 -61.5t-48 -36.5t-64.5 -12h-135z" />
    <glyph glyph-name="egrave" unicode="&#xe8;" horiz-adv-x="602" 
d="M308 -12q-76 0 -134.5 32.5t-91 91t-32.5 135.5q0 79 32 139.5t90.5 95t135.5 34.5q75 0 131 -33t87 -89t31 -127v-22.5t-2 -25.5h-409v82h275q-3 49 -34.5 77t-78.5 28q-34 0 -63 -15.5t-45.5 -47.5t-16.5 -81v-29q0 -41 15.5 -71.5t43.5 -47t65 -16.5t61.5 16t36.5 41
h138q-14 -47 -47 -85t-81 -60t-107 -22zM410 547l-222 111l15 103v0l220 -125z" />
    <glyph glyph-name="eacute" unicode="&#xe9;" horiz-adv-x="602" 
d="M308 -12q-76 0 -134.5 32.5t-91 91t-32.5 135.5q0 79 32 139.5t90.5 95t135.5 34.5q75 0 131 -33t87 -89t31 -127v-22.5t-2 -25.5h-409v82h275q-3 49 -34.5 77t-78.5 28q-34 0 -63 -15.5t-45.5 -47.5t-16.5 -81v-29q0 -41 15.5 -71.5t43.5 -47t65 -16.5t61.5 16t36.5 41
h138q-14 -47 -47 -85t-81 -60t-107 -22zM200 547l-12 89l219 125v0l16 -103z" />
    <glyph glyph-name="ecircumflex" unicode="&#xea;" horiz-adv-x="602" 
d="M308 -12q-76 0 -134.5 32.5t-91 91t-32.5 135.5q0 79 32 139.5t90.5 95t135.5 34.5q75 0 131 -33t87 -89t31 -127v-22.5t-2 -25.5h-409v82h275q-3 49 -34.5 77t-78.5 28q-34 0 -63 -15.5t-45.5 -47.5t-16.5 -81v-29q0 -41 15.5 -71.5t43.5 -47t65 -16.5t61.5 16t36.5 41
h138q-14 -47 -47 -85t-81 -60t-107 -22zM158 550v96l148 80l147 -80v-96l-147 82z" />
    <glyph glyph-name="edieresis" unicode="&#xeb;" horiz-adv-x="602" 
d="M308 -12q-76 0 -134.5 32.5t-91 91t-32.5 135.5q0 79 32 139.5t90.5 95t135.5 34.5q75 0 131 -33t87 -89t31 -127v-22.5t-2 -25.5h-409v82h275q-3 49 -34.5 77t-78.5 28q-34 0 -63 -15.5t-45.5 -47.5t-16.5 -81v-29q0 -41 15.5 -71.5t43.5 -47t65 -16.5t61.5 16t36.5 41
h138q-14 -47 -47 -85t-81 -60t-107 -22zM213 570q-26 0 -44.5 18t-18.5 45t18.5 45.5t44.5 18.5q28 0 46.5 -18.5t18.5 -45.5t-18.5 -45t-46.5 -18zM397 570q-27 0 -45.5 18t-18.5 45t18.5 45.5t45.5 18.5t45.5 -18.5t18.5 -45.5t-18.5 -45t-45.5 -18z" />
    <glyph glyph-name="igrave" unicode="&#xec;" horiz-adv-x="267" 
d="M66 0v504h135v-504h-135zM238 547l-222 111l15 103v0l220 -125z" />
    <glyph glyph-name="iacute" unicode="&#xed;" horiz-adv-x="267" 
d="M66 0v504h135v-504h-135zM28 547l-12 89l219 125v0l16 -103z" />
    <glyph glyph-name="icircumflex" unicode="&#xee;" horiz-adv-x="267" 
d="M66 0v504h135v-504h-135zM-14 550v96l148 80l147 -80v-96l-147 82z" />
    <glyph glyph-name="idieresis" unicode="&#xef;" horiz-adv-x="267" 
d="M66 0v504h135v-504h-135zM41 570q-26 0 -44.5 18t-18.5 45t18.5 45.5t44.5 18.5q28 0 46.5 -18.5t18.5 -45.5t-18.5 -45t-46.5 -18zM225 570q-27 0 -45.5 18t-18.5 45t18.5 45.5t45.5 18.5t45.5 -18.5t18.5 -45.5t-18.5 -45t-45.5 -18z" />
    <glyph glyph-name="eth" unicode="&#xf0;" horiz-adv-x="640" 
d="M317 -12q-78 0 -138.5 34t-94.5 92.5t-34 132.5q0 75 33.5 133t91.5 91t134 33q38 0 71.5 -10t61.5 -32q-13 32 -31 64.5t-40 63t-47.5 58t-54.5 52.5h127q51 -44 88 -95.5t60.5 -106t34.5 -108t11 -103.5q0 -92 -36 -159.5t-97.5 -103.5t-139.5 -36zM320 103
q36 0 66 17.5t48 49.5t18 77q0 44 -18 76t-48 49.5t-66 17.5t-66 -17.5t-48 -49.5t-18 -76q0 -45 18 -77t48 -49.5t66 -17.5zM255 535v80l293 94v-80z" />
    <glyph glyph-name="ntilde" unicode="&#xf1;" horiz-adv-x="617" 
d="M66 0v504h119l10 -82v0q23 42 65.5 68t101.5 26q63 0 106 -26t65.5 -76t22.5 -123v-291h-134v278q0 60 -25.5 92t-78.5 32q-34 0 -60.5 -16t-41.5 -45.5t-15 -71.5v-269h-135zM391 570q-29 0 -49.5 11t-37.5 22.5t-38 11.5q-16 0 -27.5 -11t-15.5 -34h-71q11 67 42.5 98
t77.5 31q29 0 49 -11.5t37.5 -23t38.5 -11.5q17 0 28.5 11t14.5 34h71q-10 -67 -41.5 -97.5t-78.5 -30.5z" />
    <glyph glyph-name="ograve" unicode="&#xf2;" horiz-adv-x="610" 
d="M304 -12q-72 0 -129.5 33.5t-91 93t-33.5 136.5q0 79 33.5 138.5t91.5 93t130 33.5q73 0 130.5 -33.5t91 -93t33.5 -137.5t-33.5 -137.5t-91.5 -93t-131 -33.5zM304 105q34 0 60.5 16t42 49t15.5 82t-15.5 81.5t-42 49t-59.5 16.5q-32 0 -59 -16.5t-42.5 -49t-15.5 -81.5
t15.5 -82t42 -49t58.5 -16zM410 547l-222 111l15 103v0l220 -125z" />
    <glyph glyph-name="oacute" unicode="&#xf3;" horiz-adv-x="610" 
d="M304 -12q-72 0 -129.5 33.5t-91 93t-33.5 136.5q0 79 33.5 138.5t91.5 93t130 33.5q73 0 130.5 -33.5t91 -93t33.5 -137.5t-33.5 -137.5t-91.5 -93t-131 -33.5zM304 105q34 0 60.5 16t42 49t15.5 82t-15.5 81.5t-42 49t-59.5 16.5q-32 0 -59 -16.5t-42.5 -49t-15.5 -81.5
t15.5 -82t42 -49t58.5 -16zM200 547l-12 89l219 125v0l16 -103z" />
    <glyph glyph-name="ocircumflex" unicode="&#xf4;" horiz-adv-x="610" 
d="M304 -12q-72 0 -129.5 33.5t-91 93t-33.5 136.5q0 79 33.5 138.5t91.5 93t130 33.5q73 0 130.5 -33.5t91 -93t33.5 -137.5t-33.5 -137.5t-91.5 -93t-131 -33.5zM304 105q34 0 60.5 16t42 49t15.5 82t-15.5 81.5t-42 49t-59.5 16.5q-32 0 -59 -16.5t-42.5 -49t-15.5 -81.5
t15.5 -82t42 -49t58.5 -16zM158 550v96l148 80l147 -80v-96l-147 82z" />
    <glyph glyph-name="otilde" unicode="&#xf5;" horiz-adv-x="610" 
d="M304 -12q-72 0 -129.5 33.5t-91 93t-33.5 136.5q0 79 33.5 138.5t91.5 93t130 33.5q73 0 130.5 -33.5t91 -93t33.5 -137.5t-33.5 -137.5t-91.5 -93t-131 -33.5zM304 105q34 0 60.5 16t42 49t15.5 82t-15.5 81.5t-42 49t-59.5 16.5q-32 0 -59 -16.5t-42.5 -49t-15.5 -81.5
t15.5 -82t42 -49t58.5 -16zM365 570q-29 0 -49.5 11t-37.5 22.5t-38 11.5q-16 0 -27.5 -11t-15.5 -34h-71q11 67 42.5 98t77.5 31q29 0 49 -11.5t37.5 -23t38.5 -11.5q17 0 28.5 11t14.5 34h71q-10 -67 -41.5 -97.5t-78.5 -30.5z" />
    <glyph glyph-name="odieresis" unicode="&#xf6;" horiz-adv-x="610" 
d="M304 -12q-72 0 -129.5 33.5t-91 93t-33.5 136.5q0 79 33.5 138.5t91.5 93t130 33.5q73 0 130.5 -33.5t91 -93t33.5 -137.5t-33.5 -137.5t-91.5 -93t-131 -33.5zM304 105q34 0 60.5 16t42 49t15.5 82t-15.5 81.5t-42 49t-59.5 16.5q-32 0 -59 -16.5t-42.5 -49t-15.5 -81.5
t15.5 -82t42 -49t58.5 -16zM213 570q-26 0 -44.5 18t-18.5 45t18.5 45.5t44.5 18.5q28 0 46.5 -18.5t18.5 -45.5t-18.5 -45t-46.5 -18zM397 570q-27 0 -45.5 18t-18.5 45t18.5 45.5t45.5 18.5t45.5 -18.5t18.5 -45.5t-18.5 -45t-45.5 -18z" />
    <glyph glyph-name="divide" unicode="&#xf7;" horiz-adv-x="579" 
d="M72 233v113h435v-113h-435zM291 31q-38 0 -61 22.5t-23 54.5q0 34 23 56.5t61 22.5q36 0 59 -22.5t23 -56.5q0 -32 -23 -54.5t-59 -22.5zM291 396q-38 0 -61 22.5t-23 55.5t23 55.5t61 22.5q36 0 59 -22.5t23 -55.5t-23 -55.5t-59 -22.5z" />
    <glyph glyph-name="oslash" unicode="&#xf8;" horiz-adv-x="594" 
d="M28 0l434 504h104l-433 -504h-105zM296 -12q-72 0 -130 33.5t-91 93t-33 136.5q0 79 33.5 138.5t91.5 93t130 33.5q73 0 130.5 -33.5t91 -93t33.5 -137.5t-33.5 -137.5t-91.5 -93t-131 -33.5zM297 105q33 0 59.5 16t42 49t15.5 82t-15.5 81.5t-42 49t-59.5 16.5
q-32 0 -59 -16.5t-43 -49t-16 -81.5t16 -82t42.5 -49t59.5 -16z" />
    <glyph glyph-name="ugrave" unicode="&#xf9;" horiz-adv-x="616" 
d="M254 -12q-61 0 -104.5 25.5t-66.5 75t-23 122.5v293h135v-279q0 -61 25.5 -92t78.5 -31q34 0 60 15.5t41.5 45t15.5 72.5v269h134v-504h-118l-11 82v0q-22 -43 -65 -68.5t-102 -25.5zM408 547l-222 111l15 103v0l220 -125z" />
    <glyph glyph-name="uacute" unicode="&#xfa;" horiz-adv-x="616" 
d="M254 -12q-61 0 -104.5 25.5t-66.5 75t-23 122.5v293h135v-279q0 -61 25.5 -92t78.5 -31q34 0 60 15.5t41.5 45t15.5 72.5v269h134v-504h-118l-11 82v0q-22 -43 -65 -68.5t-102 -25.5zM198 547l-12 89l219 125v0l16 -103z" />
    <glyph glyph-name="ucircumflex" unicode="&#xfb;" horiz-adv-x="616" 
d="M254 -12q-61 0 -104.5 25.5t-66.5 75t-23 122.5v293h135v-279q0 -61 25.5 -92t78.5 -31q34 0 60 15.5t41.5 45t15.5 72.5v269h134v-504h-118l-11 82v0q-22 -43 -65 -68.5t-102 -25.5zM156 550v96l148 80l147 -80v-96l-147 82z" />
    <glyph glyph-name="udieresis" unicode="&#xfc;" horiz-adv-x="616" 
d="M254 -12q-61 0 -104.5 25.5t-66.5 75t-23 122.5v293h135v-279q0 -61 25.5 -92t78.5 -31q34 0 60 15.5t41.5 45t15.5 72.5v269h134v-504h-118l-11 82v0q-22 -43 -65 -68.5t-102 -25.5zM212 570q-26 0 -44.5 18t-18.5 45t18.5 45.5t44.5 18.5q28 0 46.5 -18.5t18.5 -45.5
t-18.5 -45t-46.5 -18zM396 570q-27 0 -45.5 18t-18.5 45t18.5 45.5t45.5 18.5t45.5 -18.5t18.5 -45.5t-18.5 -45t-45.5 -18z" />
    <glyph glyph-name="yacute" unicode="&#xfd;" horiz-adv-x="604" 
d="M130 -220l122 276h-30l-202 448h147l144 -325v0l130 325h143l-311 -724h-143zM197 547l-12 89l219 125v0l16 -103z" />
    <glyph glyph-name="thorn" unicode="&#xfe;" horiz-adv-x="655" 
d="M66 -220v940h135v-286q16 22 38 40.5t52.5 30t71.5 11.5q71 0 125 -34.5t85.5 -94.5t31.5 -136t-32 -135.5t-86 -93.5t-123 -34q-56 0 -96.5 20.5t-66.5 56.5v-285h-135zM332 106q40 0 70.5 18t47.5 51t17 76t-17 76.5t-47.5 52t-70.5 18.5q-39 0 -69.5 -18.5t-48 -51.5
t-17.5 -76t17.5 -76.5t48 -51.5t69.5 -18z" />
    <glyph glyph-name="ydieresis" unicode="&#xff;" horiz-adv-x="604" 
d="M130 -220l122 276h-30l-202 448h147l144 -325v0l130 325h143l-311 -724h-143zM210 570q-26 0 -44.5 18t-18.5 45t18.5 45.5t44.5 18.5q28 0 46.5 -18.5t18.5 -45.5t-18.5 -45t-46.5 -18zM394 570q-27 0 -45.5 18t-18.5 45t18.5 45.5t45.5 18.5t45.5 -18.5t18.5 -45.5
t-18.5 -45t-45.5 -18z" />
    <glyph glyph-name="Amacron" unicode="&#x100;" horiz-adv-x="709" 
d="M22 0l256 700h153l255 -700h-143l-189 546v0l-190 -546h-142zM135 159l36 105h356l35 -105h-427zM166 781v95h378v-95h-378z" />
    <glyph glyph-name="amacron" unicode="&#x101;" horiz-adv-x="586" 
d="M236 -12q-63 0 -104 20.5t-60.5 55t-19.5 76.5q0 46 23.5 81t71 55t119.5 20h125q0 37 -10 61.5t-31 36.5t-56 12q-38 0 -64.5 -16.5t-32.5 -50.5h-131q5 54 35.5 93.5t81 61.5t112.5 22q71 0 123 -24t80 -69t28 -111v-312h-114l-15 77v0q-11 -20 -26 -36t-35 -28
t-45 -18.5t-55 -6.5zM268 92q26 0 46.5 9.5t35.5 26t23.5 38t11.5 46.5v1h-103q-31 0 -50.5 -7.5t-28.5 -21.5t-9 -32q0 -20 9 -33t26 -20t39 -7zM100 594v95h378v-95h-378z" />
    <glyph glyph-name="Abreve" unicode="&#x102;" horiz-adv-x="709" 
d="M22 0l256 700h153l255 -700h-143l-189 546v0l-190 -546h-142zM135 159l36 105h356l35 -105h-427zM355 748q-49 0 -84.5 19t-54.5 53.5t-19 82.5v17h71q0 -34 19 -53t68 -19q48 0 67.5 19t19.5 53h71v-18q0 -47 -19.5 -82t-55 -53.5t-83.5 -18.5z" />
    <glyph glyph-name="abreve" unicode="&#x103;" horiz-adv-x="586" 
d="M236 -12q-63 0 -104 20.5t-60.5 55t-19.5 76.5q0 46 23.5 81t71 55t119.5 20h125q0 37 -10 61.5t-31 36.5t-56 12q-38 0 -64.5 -16.5t-32.5 -50.5h-131q5 54 35.5 93.5t81 61.5t112.5 22q71 0 123 -24t80 -69t28 -111v-312h-114l-15 77v0q-11 -20 -26 -36t-35 -28
t-45 -18.5t-55 -6.5zM268 92q26 0 46.5 9.5t35.5 26t23.5 38t11.5 46.5v1h-103q-31 0 -50.5 -7.5t-28.5 -21.5t-9 -32q0 -20 9 -33t26 -20t39 -7zM289 563q-49 0 -84.5 18.5t-54.5 53.5t-19 83v17h71q0 -34 19 -53t68 -19q48 0 67.5 19t19.5 53h71v-18q0 -48 -19.5 -82.5
t-55 -53t-83.5 -18.5z" />
    <glyph glyph-name="Aogonek" unicode="&#x104;" horiz-adv-x="709" 
d="M22 0l256 700h153l255 -700h-143l-189 546v0l-190 -546h-142zM135 159l36 105h356l35 -105h-427zM604 -211q-37 0 -68 11t-49.5 35t-18.5 60q0 27 13 52t44.5 49t86.5 47l45 20l30 -63l-51 -25q-36 -18 -51 -34t-15 -34t13.5 -29t37.5 -11q15 0 33.5 4t37.5 11v-79
q-19 -7 -41.5 -10.5t-46.5 -3.5z" />
    <glyph glyph-name="aogonek" unicode="&#x105;" horiz-adv-x="586" 
d="M236 -12q-63 0 -104 20.5t-60.5 55t-19.5 76.5q0 46 23.5 81t71 55t119.5 20h125q0 37 -10 61.5t-31 36.5t-56 12q-38 0 -64.5 -16.5t-32.5 -50.5h-131q5 54 35.5 93.5t81 61.5t112.5 22q71 0 123 -24t80 -69t28 -111v-312h-114l-15 77v0q-11 -20 -26 -36t-35 -28
t-45 -18.5t-55 -6.5zM268 92q26 0 46.5 9.5t35.5 26t23.5 38t11.5 46.5v1h-103q-31 0 -50.5 -7.5t-28.5 -21.5t-9 -32q0 -20 9 -33t26 -20t39 -7zM443 -211q-37 0 -68 11t-49.5 35t-18.5 60q0 27 13 52t44.5 49t86.5 47l45 20l30 -63l-51 -25q-36 -18 -51 -34t-15 -34
t13.5 -29t37.5 -11q15 0 33.5 4t37.5 11v-79q-19 -7 -41.5 -10.5t-46.5 -3.5z" />
    <glyph glyph-name="Cacute" unicode="&#x106;" horiz-adv-x="738" 
d="M383 -12q-105 0 -180.5 45.5t-116 127t-40.5 188.5t40.5 189t116 128t180.5 46q127 0 208 -63t101 -178h-147q-13 56 -54.5 87.5t-108.5 31.5q-62 0 -106.5 -29.5t-68.5 -83t-24 -128.5q0 -74 24 -128t68.5 -83t106.5 -29q67 0 108 29.5t54 82.5h148q-20 -109 -101 -171
t-208 -62zM263 743l-12 89l219 126v0l16 -103z" />
    <glyph glyph-name="cacute" unicode="&#x107;" horiz-adv-x="607" 
d="M310 -12q-76 0 -135 34t-92 93t-33 135q0 78 33 137.5t92 94t135 34.5q97 0 163 -51t84 -140h-143q-9 35 -37.5 55t-67.5 20q-35 0 -62.5 -17.5t-43 -51t-15.5 -79.5q0 -35 9 -62.5t25 -47t38.5 -29.5t48.5 -10t47.5 9t36.5 25.5t21 40.5h143q-18 -87 -84.5 -138.5
t-162.5 -51.5zM198 547l-12 89l219 125v0l16 -103z" />
    <glyph glyph-name="Cdotaccent" unicode="&#x10a;" horiz-adv-x="738" 
d="M383 -12q-105 0 -180.5 45.5t-116 127t-40.5 188.5t40.5 189t116 128t180.5 46q127 0 208 -63t101 -178h-147q-13 56 -54.5 87.5t-108.5 31.5q-62 0 -106.5 -29.5t-68.5 -83t-24 -128.5q0 -74 24 -128t68.5 -83t106.5 -29q67 0 108 29.5t54 82.5h148q-20 -109 -101 -171
t-208 -62zM368 764q-26 0 -44.5 18.5t-18.5 44.5q0 27 18.5 45.5t44.5 18.5q28 0 46.5 -18.5t18.5 -45.5q0 -26 -18.5 -44.5t-46.5 -18.5z" />
    <glyph glyph-name="cdotaccent" unicode="&#x10b;" horiz-adv-x="607" 
d="M310 -12q-76 0 -135 34t-92 93t-33 135q0 78 33 137.5t92 94t135 34.5q97 0 163 -51t84 -140h-143q-9 35 -37.5 55t-67.5 20q-35 0 -62.5 -17.5t-43 -51t-15.5 -79.5q0 -35 9 -62.5t25 -47t38.5 -29.5t48.5 -10t47.5 9t36.5 25.5t21 40.5h143q-18 -87 -84.5 -138.5
t-162.5 -51.5zM303 571q-26 0 -44.5 18.5t-18.5 44.5q0 27 18.5 45.5t44.5 18.5q28 0 46.5 -18.5t18.5 -45.5q0 -26 -18.5 -44.5t-46.5 -18.5z" />
    <glyph glyph-name="Ccaron" unicode="&#x10c;" horiz-adv-x="738" 
d="M383 -12q-105 0 -180.5 45.5t-116 127t-40.5 188.5t40.5 189t116 128t180.5 46q127 0 208 -63t101 -178h-147q-13 56 -54.5 87.5t-108.5 31.5q-62 0 -106.5 -29.5t-68.5 -83t-24 -128.5q0 -74 24 -128t68.5 -83t106.5 -29q67 0 108 29.5t54 82.5h148q-20 -109 -101 -171
t-208 -62zM369 745l-148 80v96l148 -86l147 86v-96z" />
    <glyph glyph-name="ccaron" unicode="&#x10d;" horiz-adv-x="607" 
d="M310 -12q-76 0 -135 34t-92 93t-33 135q0 78 33 137.5t92 94t135 34.5q97 0 163 -51t84 -140h-143q-9 35 -37.5 55t-67.5 20q-35 0 -62.5 -17.5t-43 -51t-15.5 -79.5q0 -35 9 -62.5t25 -47t38.5 -29.5t48.5 -10t47.5 9t36.5 25.5t21 40.5h143q-18 -87 -84.5 -138.5
t-162.5 -51.5zM304 563l-148 80v96l148 -86l147 86v-96z" />
    <glyph glyph-name="Dcaron" unicode="&#x10e;" horiz-adv-x="707" 
d="M69 0v700h234q122 0 201.5 -43.5t118 -122t38.5 -184.5t-38.5 -184.5t-117.5 -122t-202 -43.5h-234zM204 116h92q86 0 135.5 28t70.5 80.5t21 125.5q0 74 -21 126.5t-70.5 80.5t-135.5 28h-92v-469zM290 745l-148 80v96l148 -86l147 86v-96z" />
    <glyph glyph-name="dcaron" unicode="&#x10f;" horiz-adv-x="759" 
d="M290 -12q-69 0 -123.5 34t-85.5 94t-31 135q0 77 31.5 136.5t87 94t124.5 34.5q54 0 95 -20t66 -57v281h135v-720h-120l-15 69v0q-15 -21 -37.5 -40t-53.5 -30t-73 -11zM322 106q40 0 70.5 18.5t47.5 51.5t17 76t-17 76t-47.5 51.5t-70.5 18.5q-38 0 -69 -18.5
t-48.5 -51.5t-17.5 -75q0 -44 17.5 -77t48 -51.5t69.5 -18.5zM632 521v55q24 0 35.5 8.5t11.5 27.5v19h-47v106h105q7 -29 10 -51.5t3 -46.5q0 -57 -30 -87.5t-88 -30.5z" />
    <glyph glyph-name="Dcroat" unicode="&#x110;" horiz-adv-x="719" 
d="M6 293v115h381v-115h-381zM80 0v700h235q122 0 201.5 -43.5t118 -122t38.5 -184.5t-38.5 -184.5t-118 -122t-201.5 -43.5h-235zM215 116h93q86 0 135.5 28t70.5 80.5t21 125.5q0 74 -21 126.5t-70.5 80.5t-135.5 28h-93v-469z" />
    <glyph glyph-name="dcroat" unicode="&#x111;" horiz-adv-x="685" 
d="M316 565v81h345v-81h-345zM290 -12q-69 0 -123.5 34t-85.5 94t-31 135q0 77 31.5 136.5t87 94t124.5 34.5q54 0 95 -20t66 -57v281h135v-720h-120l-15 69v0q-15 -21 -37.5 -40t-53.5 -30t-73 -11zM322 106q40 0 70.5 18.5t47.5 51.5t17 76t-17 76t-47.5 51.5t-70.5 18.5
q-38 0 -69 -18.5t-48.5 -51.5t-17.5 -75q0 -44 17.5 -77t48 -51.5t69.5 -18.5z" />
    <glyph glyph-name="Emacron" unicode="&#x112;" horiz-adv-x="583" 
d="M69 0v700h460v-109h-325v-183h295v-105h-295v-194h325v-109h-460zM110 781v95h378v-95h-378z" />
    <glyph glyph-name="emacron" unicode="&#x113;" horiz-adv-x="602" 
d="M308 -12q-76 0 -134.5 32.5t-91 91t-32.5 135.5q0 79 32 139.5t90.5 95t135.5 34.5q75 0 131 -33t87 -89t31 -127v-22.5t-2 -25.5h-409v82h275q-3 49 -34.5 77t-78.5 28q-34 0 -63 -15.5t-45.5 -47.5t-16.5 -81v-29q0 -41 15.5 -71.5t43.5 -47t65 -16.5t61.5 16t36.5 41
h138q-14 -47 -47 -85t-81 -60t-107 -22zM116 594v95h378v-95h-378z" />
    <glyph glyph-name="Ebreve" unicode="&#x114;" horiz-adv-x="583" 
d="M69 0v700h460v-109h-325v-183h295v-105h-295v-194h325v-109h-460zM300 748q-49 0 -84.5 19t-54.5 53.5t-19 82.5v17h71q0 -34 19 -53t68 -19q48 0 67.5 19t19.5 53h71v-18q0 -47 -19.5 -82t-55 -53.5t-83.5 -18.5z" />
    <glyph glyph-name="ebreve" unicode="&#x115;" horiz-adv-x="602" 
d="M308 -12q-76 0 -134.5 32.5t-91 91t-32.5 135.5q0 79 32 139.5t90.5 95t135.5 34.5q75 0 131 -33t87 -89t31 -127v-22.5t-2 -25.5h-409v82h275q-3 49 -34.5 77t-78.5 28q-34 0 -63 -15.5t-45.5 -47.5t-16.5 -81v-29q0 -41 15.5 -71.5t43.5 -47t65 -16.5t61.5 16t36.5 41
h138q-14 -47 -47 -85t-81 -60t-107 -22zM306 563q-49 0 -84.5 18.5t-54.5 53.5t-19 83v17h71q0 -34 19 -53t68 -19q48 0 67.5 19t19.5 53h71v-18q0 -48 -19.5 -82.5t-55 -53t-83.5 -18.5z" />
    <glyph glyph-name="Edotaccent" unicode="&#x116;" horiz-adv-x="583" 
d="M69 0v700h460v-109h-325v-183h295v-105h-295v-194h325v-109h-460zM298 764q-26 0 -44.5 18.5t-18.5 44.5q0 27 18.5 45.5t44.5 18.5q28 0 46.5 -18.5t18.5 -45.5q0 -26 -18.5 -44.5t-46.5 -18.5z" />
    <glyph glyph-name="edotaccent" unicode="&#x117;" horiz-adv-x="602" 
d="M308 -12q-76 0 -134.5 32.5t-91 91t-32.5 135.5q0 79 32 139.5t90.5 95t135.5 34.5q75 0 131 -33t87 -89t31 -127v-22.5t-2 -25.5h-409v82h275q-3 49 -34.5 77t-78.5 28q-34 0 -63 -15.5t-45.5 -47.5t-16.5 -81v-29q0 -41 15.5 -71.5t43.5 -47t65 -16.5t61.5 16t36.5 41
h138q-14 -47 -47 -85t-81 -60t-107 -22zM304 571q-26 0 -44.5 18.5t-18.5 44.5q0 27 18.5 45.5t44.5 18.5q28 0 46.5 -18.5t18.5 -45.5q0 -26 -18.5 -44.5t-46.5 -18.5z" />
    <glyph glyph-name="Eogonek" unicode="&#x118;" horiz-adv-x="583" 
d="M69 0v700h460v-109h-325v-183h295v-105h-295v-194h325v-109h-460zM447 -211q-37 0 -68 11t-49.5 35t-18.5 60q0 27 13 52t44.5 49t86.5 47l45 20l30 -63l-51 -25q-36 -18 -51 -34t-15 -34t13.5 -29t37.5 -11q15 0 33.5 4t37.5 11v-79q-19 -7 -41.5 -10.5t-46.5 -3.5z" />
    <glyph glyph-name="eogonek" unicode="&#x119;" horiz-adv-x="602" 
d="M308 -12q-76 0 -134.5 32.5t-91 91t-32.5 135.5q0 79 32 139.5t90.5 95t135.5 34.5q75 0 131 -33t87 -89t31 -127v-22.5t-2 -25.5h-409v82h275q-3 49 -34.5 77t-78.5 28q-34 0 -63 -15.5t-45.5 -47.5t-16.5 -81v-29q0 -41 15.5 -71.5t43.5 -47t65 -16.5t61.5 16t36.5 41
h138q-14 -47 -47 -85t-81 -60t-107 -22zM327 -200q-37 0 -68 11t-49.5 35t-18.5 60q0 27 13 52t44.5 49t86.5 47l45 20l30 -63l-51 -25q-36 -18 -51 -34t-15 -34t13.5 -29t37.5 -11q15 0 33.5 4t37.5 11v-79q-19 -7 -41.5 -10.5t-46.5 -3.5z" />
    <glyph glyph-name="Ecaron" unicode="&#x11a;" horiz-adv-x="583" 
d="M69 0v700h460v-109h-325v-183h295v-105h-295v-194h325v-109h-460zM300 745l-148 80v96l148 -86l147 86v-96z" />
    <glyph glyph-name="ecaron" unicode="&#x11b;" horiz-adv-x="602" 
d="M308 -12q-76 0 -134.5 32.5t-91 91t-32.5 135.5q0 79 32 139.5t90.5 95t135.5 34.5q75 0 131 -33t87 -89t31 -127v-22.5t-2 -25.5h-409v82h275q-3 49 -34.5 77t-78.5 28q-34 0 -63 -15.5t-45.5 -47.5t-16.5 -81v-29q0 -41 15.5 -71.5t43.5 -47t65 -16.5t61.5 16t36.5 41
h138q-14 -47 -47 -85t-81 -60t-107 -22zM306 563l-148 80v96l148 -86l147 86v-96z" />
    <glyph glyph-name="Gbreve" unicode="&#x11e;" horiz-adv-x="778" 
d="M376 -12q-100 0 -174 44.5t-115 125t-41 187.5q0 108 42 190.5t121 129.5t189 47q123 0 204.5 -59t105.5 -164h-151q-15 46 -55.5 72.5t-104.5 26.5q-68 0 -116 -30t-73 -84t-25 -129q0 -76 25 -129t71.5 -80.5t109.5 -27.5q92 0 139.5 49.5t56.5 128.5h-172v101h308
v-387h-125l-10 89v0q-22 -33 -51.5 -55.5t-68.5 -34t-90 -11.5zM389 748q-49 0 -84.5 19t-54.5 53.5t-19 82.5v17h71q0 -34 19 -53t68 -19q48 0 67.5 19t19.5 53h71v-18q0 -47 -19.5 -82t-55 -53.5t-83.5 -18.5z" />
    <glyph glyph-name="gbreve" unicode="&#x11f;" horiz-adv-x="596" 
d="M283 -232q-72 0 -126 17.5t-83.5 53t-29.5 87.5q0 35 18 66t52.5 56.5t86.5 43.5l51 -66q-46 -15 -66.5 -37.5t-20.5 -48.5q0 -23 15.5 -39t42 -23.5t59.5 -7.5q32 0 55.5 8t37 23.5t13.5 36.5q0 27 -19 44t-76 21q-51 4 -90.5 11.5t-69.5 18t-50.5 23.5t-33.5 26v23
l107 115l97 -31l-126 -124l38 66q11 -6 21.5 -11.5t26.5 -10t42 -8.5t66 -7q66 -6 108.5 -25t62.5 -50.5t20 -77.5q0 -45 -24.5 -84.5t-75.5 -64t-129 -24.5zM283 149q-63 0 -108.5 24.5t-70 66t-24.5 92.5t24.5 92.5t70 66.5t108.5 25q64 0 109.5 -25t69.5 -66.5t24 -92.5
t-24 -92.5t-69.5 -66t-109.5 -24.5zM283 252q39 0 63 20t24 59t-24 59.5t-63 20.5q-38 0 -62.5 -20.5t-24.5 -59.5t24.5 -59t62.5 -20zM367 408l-22 96h207v-80zM284 563q-49 0 -84.5 18.5t-54.5 53.5t-19 83v17h71q0 -34 19 -53t68 -19q48 0 67.5 19t19.5 53h71v-18
q0 -48 -19.5 -82.5t-55 -53t-83.5 -18.5z" />
    <glyph glyph-name="Gdotaccent" unicode="&#x120;" horiz-adv-x="778" 
d="M376 -12q-100 0 -174 44.5t-115 125t-41 187.5q0 108 42 190.5t121 129.5t189 47q123 0 204.5 -59t105.5 -164h-151q-15 46 -55.5 72.5t-104.5 26.5q-68 0 -116 -30t-73 -84t-25 -129q0 -76 25 -129t71.5 -80.5t109.5 -27.5q92 0 139.5 49.5t56.5 128.5h-172v101h308
v-387h-125l-10 89v0q-22 -33 -51.5 -55.5t-68.5 -34t-90 -11.5zM388 764q-26 0 -44.5 18.5t-18.5 44.5q0 27 18.5 45.5t44.5 18.5q28 0 46.5 -18.5t18.5 -45.5q0 -26 -18.5 -44.5t-46.5 -18.5z" />
    <glyph glyph-name="gdotaccent" unicode="&#x121;" horiz-adv-x="596" 
d="M283 -232q-72 0 -126 17.5t-83.5 53t-29.5 87.5q0 35 18 66t52.5 56.5t86.5 43.5l51 -66q-46 -15 -66.5 -37.5t-20.5 -48.5q0 -23 15.5 -39t42 -23.5t59.5 -7.5q32 0 55.5 8t37 23.5t13.5 36.5q0 27 -19 44t-76 21q-51 4 -90.5 11.5t-69.5 18t-50.5 23.5t-33.5 26v23
l107 115l97 -31l-126 -124l38 66q11 -6 21.5 -11.5t26.5 -10t42 -8.5t66 -7q66 -6 108.5 -25t62.5 -50.5t20 -77.5q0 -45 -24.5 -84.5t-75.5 -64t-129 -24.5zM283 149q-63 0 -108.5 24.5t-70 66t-24.5 92.5t24.5 92.5t70 66.5t108.5 25q64 0 109.5 -25t69.5 -66.5t24 -92.5
t-24 -92.5t-69.5 -66t-109.5 -24.5zM283 252q39 0 63 20t24 59t-24 59.5t-63 20.5q-38 0 -62.5 -20.5t-24.5 -59.5t24.5 -59t62.5 -20zM367 408l-22 96h207v-80zM282 571q-26 0 -44.5 18.5t-18.5 44.5q0 27 18.5 45.5t44.5 18.5q28 0 46.5 -18.5t18.5 -45.5
q0 -26 -18.5 -44.5t-46.5 -18.5z" />
    <glyph glyph-name="uni0122" unicode="&#x122;" horiz-adv-x="778" 
d="M376 -12q-100 0 -174 44.5t-115 125t-41 187.5q0 108 42 190.5t121 129.5t189 47q123 0 204.5 -59t105.5 -164h-151q-15 46 -55.5 72.5t-104.5 26.5q-68 0 -116 -30t-73 -84t-25 -129q0 -76 25 -129t71.5 -80.5t109.5 -27.5q92 0 139.5 49.5t56.5 128.5h-172v101h308
v-387h-125l-10 89v0q-22 -33 -51.5 -55.5t-68.5 -34t-90 -11.5zM331 -280v54q26 0 38 15.5t12 47.5v15h-56v104h113q8 -27 11.5 -52t3.5 -48q0 -64 -30.5 -100t-91.5 -36z" />
    <glyph glyph-name="uni0123" unicode="&#x123;" horiz-adv-x="596" 
d="M283 -232q-72 0 -126 17.5t-83.5 53t-29.5 87.5q0 35 18 66t52.5 56.5t86.5 43.5l51 -66q-46 -15 -66.5 -37.5t-20.5 -48.5q0 -23 15.5 -39t42 -23.5t59.5 -7.5q32 0 55.5 8t37 23.5t13.5 36.5q0 27 -19 44t-76 21q-51 4 -90.5 11.5t-69.5 18t-50.5 23.5t-33.5 26v23
l107 115l97 -31l-126 -124l38 66q11 -6 21.5 -11.5t26.5 -10t42 -8.5t66 -7q66 -6 108.5 -25t62.5 -50.5t20 -77.5q0 -45 -24.5 -84.5t-75.5 -64t-129 -24.5zM283 149q-63 0 -108.5 24.5t-70 66t-24.5 92.5t24.5 92.5t70 66.5t108.5 25q64 0 109.5 -25t69.5 -66.5t24 -92.5
t-24 -92.5t-69.5 -66t-109.5 -24.5zM283 252q39 0 63 20t24 59t-24 59.5t-63 20.5q-38 0 -62.5 -20.5t-24.5 -59.5t24.5 -59t62.5 -20zM367 408l-22 96h207v-80zM343 781v-54q-23 0 -35 -9t-12 -28v-18h47v-106h-105q-6 29 -9.5 51.5t-3.5 46.5q0 56 30 86.5t88 30.5z" />
    <glyph glyph-name="Hbar" unicode="&#x126;" horiz-adv-x="772" 
d="M28 493v108h716v-108h-716zM540 0v700h135v-700h-135zM98 0v700h135v-700h-135zM215 303v109h347v-109h-347z" />
    <glyph glyph-name="hbar" unicode="&#x127;" horiz-adv-x="648" 
d="M24 565v81h345v-81h-345zM96 0v720h135v-291v0q24 39 66 63t97 24q63 0 106 -26.5t65 -76.5t22 -124v-289h-134v277q0 60 -25 92.5t-79 32.5q-33 0 -60 -16t-42.5 -46.5t-15.5 -72.5v-267h-135z" />
    <glyph glyph-name="Itilde" unicode="&#x128;" horiz-adv-x="272" 
d="M69 0v700h135v-700h-135zM200 751q-29 0 -49.5 11.5t-37.5 23t-38 11.5q-16 0 -27.5 -11t-15.5 -34h-71q11 67 42.5 97.5t77.5 30.5q29 0 49 -11.5t37.5 -23t38.5 -11.5q17 0 28.5 11.5t14.5 33.5h71q-10 -66 -41.5 -97t-78.5 -31z" />
    <glyph glyph-name="itilde" unicode="&#x129;" horiz-adv-x="267" 
d="M66 0v504h135v-504h-135zM193 570q-29 0 -49.5 11t-37.5 22.5t-38 11.5q-16 0 -27.5 -11t-15.5 -34h-71q11 67 42.5 98t77.5 31q29 0 49 -11.5t37.5 -23t38.5 -11.5q17 0 28.5 11t14.5 34h71q-10 -67 -41.5 -97.5t-78.5 -30.5z" />
    <glyph glyph-name="Imacron" unicode="&#x12a;" horiz-adv-x="272" 
d="M69 0v700h135v-700h-135zM-53 781v95h378v-95h-378z" />
    <glyph glyph-name="imacron" unicode="&#x12b;" horiz-adv-x="267" 
d="M66 0v504h135v-504h-135zM-55 594v95h378v-95h-378z" />
    <glyph glyph-name="Ibreve" unicode="&#x12c;" horiz-adv-x="272" 
d="M69 0v700h135v-700h-135zM137 748q-49 0 -84.5 19t-54.5 53.5t-19 82.5v17h71q0 -34 19 -53t68 -19q48 0 67.5 19t19.5 53h71v-18q0 -47 -19.5 -82t-55 -53.5t-83.5 -18.5z" />
    <glyph glyph-name="ibreve" unicode="&#x12d;" horiz-adv-x="267" 
d="M66 0v504h135v-504h-135zM134 563q-49 0 -84.5 18.5t-54.5 53.5t-19 83v17h71q0 -34 19 -53t68 -19q48 0 67.5 19t19.5 53h71v-18q0 -48 -19.5 -82.5t-55 -53t-83.5 -18.5z" />
    <glyph glyph-name="Iogonek" unicode="&#x12e;" horiz-adv-x="272" 
d="M69 0v700h135v-700h-135zM121 -211q-37 0 -68 11t-49.5 35t-18.5 60q0 27 13 52t44.5 49t86.5 47l45 20l30 -63l-51 -25q-36 -18 -51 -34t-15 -34t13.5 -29t37.5 -11q15 0 33.5 4t37.5 11v-79q-19 -7 -41.5 -10.5t-46.5 -3.5z" />
    <glyph glyph-name="iogonek" unicode="&#x12f;" horiz-adv-x="267" 
d="M66 0v504h135v-504h-135zM133 571q-26 0 -44.5 18.5t-18.5 44.5q0 27 18.5 45.5t44.5 18.5q28 0 46.5 -18.5t18.5 -45.5q0 -26 -18.5 -44.5t-46.5 -18.5zM118 -211q-37 0 -68 11t-49.5 35t-18.5 60q0 27 13 52t44.5 49t86.5 47l45 20l30 -63l-51 -25q-36 -18 -51 -34
t-15 -34t13.5 -29t37.5 -11q15 0 33.5 4t37.5 11v-79q-19 -7 -41.5 -10.5t-46.5 -3.5z" />
    <glyph glyph-name="Idotaccent" unicode="&#x130;" horiz-adv-x="272" 
d="M69 0v700h135v-700h-135zM135 764q-26 0 -44.5 18.5t-18.5 44.5q0 27 18.5 45.5t44.5 18.5q28 0 46.5 -18.5t18.5 -45.5q0 -26 -18.5 -44.5t-46.5 -18.5z" />
    <glyph glyph-name="dotlessi" unicode="&#x131;" horiz-adv-x="267" 
d="M66 0v504h135v-504h-135z" />
    <glyph glyph-name="IJ" unicode="&#x132;" horiz-adv-x="778" 
d="M69 0v700h135v-700h-135zM493 -12q-68 0 -119.5 26t-79.5 76.5t-28 122.5h135q0 -32 9.5 -55.5t29 -36t50.5 -12.5q30 0 48.5 11.5t27 33t8.5 51.5v495h135v-495q0 -105 -58.5 -161t-157.5 -56z" />
    <glyph glyph-name="ij" unicode="&#x133;" horiz-adv-x="516" 
d="M69 0v504h135v-504h-135zM137 573q-36 0 -59.5 21.5t-23.5 54.5t23.5 54.5t59.5 21.5q37 0 60.5 -21.5t23.5 -54.5t-23.5 -54.5t-60.5 -21.5zM213 -220v115h41q32 0 45.5 13t13.5 42v554h135v-553q0 -62 -21.5 -99.5t-60.5 -54.5t-92 -17h-61zM381 573q-37 0 -60 21.5
t-23 54.5t23 54.5t60 21.5t60 -21.5t23 -54.5t-23 -54.5t-60 -21.5z" />
    <glyph glyph-name="uni0136" unicode="&#x136;" horiz-adv-x="653" 
d="M69 0v700h135v-277l253 277h166l-257 -277l265 -423h-165l-197 318l-65 -70v-248h-135zM268 -280v54q26 0 38 15.5t12 47.5v15h-56v104h113q8 -27 11.5 -52t3.5 -48q0 -64 -30.5 -100t-91.5 -36z" />
    <glyph glyph-name="uni0137" unicode="&#x137;" horiz-adv-x="578" 
d="M396 0l-215 276l193 228h159l-249 -285v107l280 -326h-168zM66 0v720h135v-720h-135zM231 -280v54q26 0 38 15.5t12 47.5v15h-56v104h113q8 -27 11.5 -52t3.5 -48q0 -64 -30.5 -100t-91.5 -36z" />
    <glyph glyph-name="Lacute" unicode="&#x139;" horiz-adv-x="558" 
d="M69 0v700h135v-595h307v-105h-442zM37 743l-12 89l219 126v0l16 -103z" />
    <glyph glyph-name="lacute" unicode="&#x13a;" horiz-adv-x="267" 
d="M66 0v720h135v-720h-135zM28 764l-12 89l219 125v0l16 -103z" />
    <glyph glyph-name="uni013B" unicode="&#x13b;" horiz-adv-x="558" 
d="M69 0v700h135v-595h307v-105h-442zM258 -280v54q26 0 38 15.5t12 47.5v15h-56v104h113q8 -27 11.5 -52t3.5 -48q0 -64 -30.5 -100t-91.5 -36z" />
    <glyph glyph-name="uni013C" unicode="&#x13c;" horiz-adv-x="267" 
d="M66 0v720h135v-720h-135zM75 -280v54q26 0 38 15.5t12 47.5v15h-56v104h113q8 -27 11.5 -52t3.5 -48q0 -64 -30.5 -100t-91.5 -36z" />
    <glyph glyph-name="Lcaron" unicode="&#x13d;" horiz-adv-x="558" 
d="M69 0v700h135v-595h307v-105h-442zM316 501v55q24 0 35.5 8.5t11.5 27.5v19h-47v106h105q7 -29 10 -51.5t3 -46.5q0 -57 -30 -87.5t-88 -30.5z" />
    <glyph glyph-name="lcaron" unicode="&#x13e;" horiz-adv-x="372" 
d="M66 0v720h135v-720h-135zM244 521v55q24 0 35.5 8.5t11.5 27.5v19h-47v106h105q7 -29 10 -51.5t3 -46.5q0 -57 -30 -87.5t-88 -30.5z" />
    <glyph glyph-name="Ldot" unicode="&#x13f;" horiz-adv-x="558" 
d="M69 0v700h135v-595h307v-105h-442zM382 272q-38 0 -61 22.5t-23 55.5t23 55.5t61 22.5q36 0 59 -22.5t23 -55.5t-23 -55.5t-59 -22.5z" />
    <glyph glyph-name="ldot" unicode="&#x140;" horiz-adv-x="457" 
d="M66 0v720h135v-720h-135zM345 248q-38 0 -61 22.5t-23 55.5t23 55.5t61 22.5q36 0 59 -22.5t23 -55.5t-23 -55.5t-59 -22.5z" />
    <glyph glyph-name="Lslash" unicode="&#x141;" horiz-adv-x="583" 
d="M23 266v112l305 100v-112zM93 0v700h135v-595h307v-105h-442z" />
    <glyph glyph-name="lslash" unicode="&#x142;" horiz-adv-x="295" 
d="M11 287v113l273 93v-113zM80 0v720h135v-720h-135z" />
    <glyph glyph-name="Nacute" unicode="&#x143;" horiz-adv-x="729" 
d="M69 0v700h135l322 -483v0v483h135v-700h-135l-322 482v0v-482h-135zM259 743l-12 89l219 126v0l16 -103z" />
    <glyph glyph-name="nacute" unicode="&#x144;" horiz-adv-x="617" 
d="M66 0v504h119l10 -82v0q23 42 65.5 68t101.5 26q63 0 106 -26t65.5 -76t22.5 -123v-291h-134v278q0 60 -25.5 92t-78.5 32q-34 0 -60.5 -16t-41.5 -45.5t-15 -71.5v-269h-135zM226 547l-12 89l219 125v0l16 -103z" />
    <glyph glyph-name="uni0145" unicode="&#x145;" horiz-adv-x="729" 
d="M69 0v700h135l322 -483v0v483h135v-700h-135l-322 482v0v-482h-135zM307 -280v54q26 0 38 15.5t12 47.5v15h-56v104h113q8 -27 11.5 -52t3.5 -48q0 -64 -30.5 -100t-91.5 -36z" />
    <glyph glyph-name="uni0146" unicode="&#x146;" horiz-adv-x="617" 
d="M66 0v504h119l10 -82v0q23 42 65.5 68t101.5 26q63 0 106 -26t65.5 -76t22.5 -123v-291h-134v278q0 60 -25.5 92t-78.5 32q-34 0 -60.5 -16t-41.5 -45.5t-15 -71.5v-269h-135zM252 -280v54q26 0 38 15.5t12 47.5v15h-56v104h113q8 -27 11.5 -52t3.5 -48q0 -64 -30.5 -100
t-91.5 -36z" />
    <glyph glyph-name="Ncaron" unicode="&#x147;" horiz-adv-x="729" 
d="M69 0v700h135l322 -483v0v483h135v-700h-135l-322 482v0v-482h-135zM365 745l-148 80v96l148 -86l147 86v-96z" />
    <glyph glyph-name="ncaron" unicode="&#x148;" horiz-adv-x="617" 
d="M66 0v504h119l10 -82v0q23 42 65.5 68t101.5 26q63 0 106 -26t65.5 -76t22.5 -123v-291h-134v278q0 60 -25.5 92t-78.5 32q-34 0 -60.5 -16t-41.5 -45.5t-15 -71.5v-269h-135zM332 563l-148 80v96l148 -86l147 86v-96z" />
    <glyph glyph-name="Eng" unicode="&#x14a;" horiz-adv-x="729" 
d="M69 0v700h135l322 -483v0v483h135v-749q0 -62 -21.5 -99.5t-60.5 -54.5t-92 -17h-61v115h41q32 0 45.5 12.5t13.5 42.5v50l-322 482v0v-482h-135z" />
    <glyph glyph-name="eng" unicode="&#x14b;" horiz-adv-x="608" 
d="M66 0v504h119l10 -82v0q23 42 65.5 68t102.5 26q61 0 104.5 -26t66 -76t22.5 -123v-340q0 -62 -21 -99.5t-60 -54.5t-92 -17h-61v115h40q33 0 46.5 13t13.5 42v328q0 60 -25.5 92t-78.5 32q-34 0 -60.5 -16t-41.5 -45.5t-15 -71.5v-269h-135z" />
    <glyph glyph-name="Omacron" unicode="&#x14c;" horiz-adv-x="784" 
d="M392 -12q-102 0 -180 46t-122 127.5t-44 188.5t44 188.5t122 127.5t180 46q103 0 181 -46t121.5 -127.5t43.5 -188.5t-43.5 -188.5t-121.5 -127.5t-181 -46zM392 109q64 0 110.5 29.5t72.5 83.5t26 128q0 75 -26 128.5t-72.5 82.5t-110.5 29q-63 0 -110 -29t-73 -82.5
t-26 -128.5q0 -74 26 -128t73 -83.5t110 -29.5zM203 781v95h378v-95h-378z" />
    <glyph glyph-name="omacron" unicode="&#x14d;" horiz-adv-x="610" 
d="M304 -12q-72 0 -129.5 33.5t-91 93t-33.5 136.5q0 79 33.5 138.5t91.5 93t130 33.5q73 0 130.5 -33.5t91 -93t33.5 -137.5t-33.5 -137.5t-91.5 -93t-131 -33.5zM304 105q34 0 60.5 16t42 49t15.5 82t-15.5 81.5t-42 49t-59.5 16.5q-32 0 -59 -16.5t-42.5 -49t-15.5 -81.5
t15.5 -82t42 -49t58.5 -16zM116 594v95h378v-95h-378z" />
    <glyph glyph-name="Obreve" unicode="&#x14e;" horiz-adv-x="784" 
d="M392 -12q-102 0 -180 46t-122 127.5t-44 188.5t44 188.5t122 127.5t180 46q103 0 181 -46t121.5 -127.5t43.5 -188.5t-43.5 -188.5t-121.5 -127.5t-181 -46zM392 109q64 0 110.5 29.5t72.5 83.5t26 128q0 75 -26 128.5t-72.5 82.5t-110.5 29q-63 0 -110 -29t-73 -82.5
t-26 -128.5q0 -74 26 -128t73 -83.5t110 -29.5zM393 748q-49 0 -84.5 19t-54.5 53.5t-19 82.5v17h71q0 -34 19 -53t68 -19q48 0 67.5 19t19.5 53h71v-18q0 -47 -19.5 -82t-55 -53.5t-83.5 -18.5z" />
    <glyph glyph-name="obreve" unicode="&#x14f;" horiz-adv-x="610" 
d="M304 -12q-72 0 -129.5 33.5t-91 93t-33.5 136.5q0 79 33.5 138.5t91.5 93t130 33.5q73 0 130.5 -33.5t91 -93t33.5 -137.5t-33.5 -137.5t-91.5 -93t-131 -33.5zM304 105q34 0 60.5 16t42 49t15.5 82t-15.5 81.5t-42 49t-59.5 16.5q-32 0 -59 -16.5t-42.5 -49t-15.5 -81.5
t15.5 -82t42 -49t58.5 -16zM306 563q-49 0 -84.5 18.5t-54.5 53.5t-19 83v17h71q0 -34 19 -53t68 -19q48 0 67.5 19t19.5 53h71v-18q0 -48 -19.5 -82.5t-55 -53t-83.5 -18.5z" />
    <glyph glyph-name="Ohungarumlaut" unicode="&#x150;" horiz-adv-x="784" 
d="M392 -12q-102 0 -180 46t-122 127.5t-44 188.5t44 188.5t122 127.5t180 46q103 0 181 -46t121.5 -127.5t43.5 -188.5t-43.5 -188.5t-121.5 -127.5t-181 -46zM392 109q64 0 110.5 29.5t72.5 83.5t26 128q0 75 -26 128.5t-72.5 82.5t-110.5 29q-63 0 -110 -29t-73 -82.5
t-26 -128.5q0 -74 26 -128t73 -83.5t110 -29.5zM426 747l82 184h110l-108 -184h-84zM252 747l71 184h110l-96 -184h-85z" />
    <glyph glyph-name="ohungarumlaut" unicode="&#x151;" horiz-adv-x="610" 
d="M304 -12q-72 0 -129.5 33.5t-91 93t-33.5 136.5q0 79 33.5 138.5t91.5 93t130 33.5q73 0 130.5 -33.5t91 -93t33.5 -137.5t-33.5 -137.5t-91.5 -93t-131 -33.5zM304 105q34 0 60.5 16t42 49t15.5 82t-15.5 81.5t-42 49t-59.5 16.5q-32 0 -59 -16.5t-42.5 -49t-15.5 -81.5
t15.5 -82t42 -49t58.5 -16zM339 551l82 184h110l-108 -184h-84zM165 551l71 184h110l-96 -184h-85z" />
    <glyph glyph-name="OE" unicode="&#x152;" horiz-adv-x="1098" 
d="M386 -12q-73 0 -135 26.5t-108.5 74.5t-71.5 114.5t-25 146.5t25 146.5t71 114.5t108 74.5t135 26.5q65 0 124.5 -25.5t97.5 -73.5v87h437v-109h-302v-183h272v-105h-272v-194h302v-109h-437v85q-25 -31 -60.5 -53t-77 -33t-83.5 -11zM395 109q60 0 107.5 29.5t75.5 83.5
t28 128q0 75 -28 128.5t-75.5 82.5t-107.5 29t-108 -29t-76 -82.5t-28 -128.5q0 -74 28 -128t76 -83.5t108 -29.5z" />
    <glyph glyph-name="oe" unicode="&#x153;" horiz-adv-x="976" 
d="M305 -12q-73 0 -130.5 33.5t-91 93t-33.5 137.5t33.5 137.5t91.5 93t130 33.5q59 0 106 -22.5t78 -64.5q33 41 82 64t111 23q74 0 130.5 -33t87.5 -89t31 -127q0 -10 -0.5 -22.5t-1.5 -25.5h-372q3 -37 19.5 -64.5t43 -42t60.5 -14.5q41 0 67 19t38 48h135
q-13 -49 -46 -89.5t-82 -64t-111 -23.5q-61 0 -110.5 22.5t-82.5 62.5q-32 -40 -78.5 -62.5t-104.5 -22.5zM305 105q33 0 59.5 16t42 49t15.5 82t-15.5 81.5t-42 49t-59.5 16.5q-32 0 -59 -16.5t-42.5 -49t-15.5 -81.5t15.5 -82t42 -49t59.5 -16zM561 301h234
q-3 49 -34.5 77t-78.5 28q-30 0 -55.5 -11.5t-42.5 -34.5t-23 -59z" />
    <glyph glyph-name="Racute" unicode="&#x154;" horiz-adv-x="631" 
d="M69 0v700h261q85 0 140 -29t82 -77.5t27 -107.5q0 -56 -26 -104.5t-81.5 -78t-142.5 -29.5h-125v-274h-135zM432 0l-144 308h146l152 -308h-154zM204 372h118q61 0 90 30t29 79t-28.5 77.5t-90.5 28.5h-118v-215zM200 743l-12 89l219 126v0l16 -103z" />
    <glyph glyph-name="racute" unicode="&#x155;" horiz-adv-x="409" 
d="M66 0v504h120l13 -93v0q18 33 45.5 56t63 36t78.5 13v-143h-46q-30 0 -55.5 -7t-44.5 -22.5t-29 -42.5t-10 -68v-233h-135zM138 547l-12 89l219 125v0l16 -103z" />
    <glyph glyph-name="uni0156" unicode="&#x156;" horiz-adv-x="631" 
d="M69 0v700h261q85 0 140 -29t82 -77.5t27 -107.5q0 -56 -26 -104.5t-81.5 -78t-142.5 -29.5h-125v-274h-135zM432 0l-144 308h146l152 -308h-154zM204 372h118q61 0 90 30t29 79t-28.5 77.5t-90.5 28.5h-118v-215zM248 -280v54q26 0 38 15.5t12 47.5v15h-56v104h113
q8 -27 11.5 -52t3.5 -48q0 -64 -30.5 -100t-91.5 -36z" />
    <glyph glyph-name="uni0157" unicode="&#x157;" horiz-adv-x="409" 
d="M66 0v504h120l13 -93v0q18 33 45.5 56t63 36t78.5 13v-143h-46q-30 0 -55.5 -7t-44.5 -22.5t-29 -42.5t-10 -68v-233h-135zM73 -280v54q26 0 38 15.5t12 47.5v15h-56v104h113q8 -27 11.5 -52t3.5 -48q0 -64 -30.5 -100t-91.5 -36z" />
    <glyph glyph-name="Rcaron" unicode="&#x158;" horiz-adv-x="631" 
d="M69 0v700h261q85 0 140 -29t82 -77.5t27 -107.5q0 -56 -26 -104.5t-81.5 -78t-142.5 -29.5h-125v-274h-135zM432 0l-144 308h146l152 -308h-154zM204 372h118q61 0 90 30t29 79t-28.5 77.5t-90.5 28.5h-118v-215zM306 745l-148 80v96l148 -86l147 86v-96z" />
    <glyph glyph-name="rcaron" unicode="&#x159;" horiz-adv-x="409" 
d="M66 0v504h120l13 -93v0q18 33 45.5 56t63 36t78.5 13v-143h-46q-30 0 -55.5 -7t-44.5 -22.5t-29 -42.5t-10 -68v-233h-135zM244 563l-148 80v96l148 -86l147 86v-96z" />
    <glyph glyph-name="Sacute" unicode="&#x15a;" horiz-adv-x="604" 
d="M310 -12q-76 0 -135.5 26t-94 76t-35.5 121h143q1 -31 16 -56t41.5 -39.5t63.5 -14.5q32 0 55.5 10.5t36.5 29.5t13 45q0 30 -14.5 50t-40 34t-59 25.5t-70.5 24.5q-83 27 -126.5 72t-43.5 119q0 63 30.5 108t84.5 69t123 24q71 0 124.5 -24.5t85 -70.5t32.5 -108h-144
q-1 23 -13.5 43.5t-34.5 33t-52 12.5q-26 1 -47.5 -8t-34 -26.5t-12.5 -43.5q0 -25 12.5 -42t34.5 -29.5t52 -23t65 -21.5q52 -18 96 -42.5t70 -63.5t26 -103q0 -55 -29 -102t-83.5 -76t-135.5 -29zM194 743l-12 89l219 126v0l16 -103z" />
    <glyph glyph-name="sacute" unicode="&#x15b;" horiz-adv-x="532" 
d="M272 -12q-69 0 -120 22t-80 61t-33 88h134q5 -19 17 -34.5t32 -24.5t48 -9q27 0 44 7.5t25.5 20.5t8.5 27q0 21 -12 32.5t-35 18.5t-56 14q-36 7 -70.5 17.5t-61.5 26.5t-43 41t-16 62q0 45 24 80.5t70 56.5t111 21q91 0 144 -41t63 -113h-127q-6 23 -26.5 36.5
t-54.5 13.5q-36 0 -55 -13t-19 -34q0 -14 12.5 -25t35.5 -18.5t56 -14.5q58 -12 102 -27.5t69 -44t25 -82.5q0 -48 -26 -85.5t-73.5 -58.5t-112.5 -21zM160 547l-12 89l219 125v0l16 -103z" />
    <glyph glyph-name="Scedilla" unicode="&#x15e;" horiz-adv-x="604" 
d="M310 -12q-76 0 -135.5 26t-94 76t-35.5 121h143q1 -31 16 -56t41.5 -39.5t63.5 -14.5q32 0 55.5 10.5t36.5 29.5t13 45q0 30 -14.5 50t-40 34t-59 25.5t-70.5 24.5q-83 27 -126.5 72t-43.5 119q0 63 30.5 108t84.5 69t123 24q71 0 124.5 -24.5t85 -70.5t32.5 -108h-144
q-1 23 -13.5 43.5t-34.5 33t-52 12.5q-26 1 -47.5 -8t-34 -26.5t-12.5 -43.5q0 -25 12.5 -42t34.5 -29.5t52 -23t65 -21.5q52 -18 96 -42.5t70 -63.5t26 -103q0 -55 -29 -102t-83.5 -76t-135.5 -29zM219 -267v77h115q25 0 38 8.5t13 26.5t-13 26t-38 8h-62v125h84v-55
q33 1 62.5 -10t48 -34.5t18.5 -61.5q0 -37 -18.5 -61.5t-48 -36.5t-64.5 -12h-135z" />
    <glyph glyph-name="scedilla" unicode="&#x15f;" horiz-adv-x="532" 
d="M272 -12q-69 0 -120 22t-80 61t-33 88h134q5 -19 17 -34.5t32 -24.5t48 -9q27 0 44 7.5t25.5 20.5t8.5 27q0 21 -12 32.5t-35 18.5t-56 14q-36 7 -70.5 17.5t-61.5 26.5t-43 41t-16 62q0 45 24 80.5t70 56.5t111 21q91 0 144 -41t63 -113h-127q-6 23 -26.5 36.5
t-54.5 13.5q-36 0 -55 -13t-19 -34q0 -14 12.5 -25t35.5 -18.5t56 -14.5q58 -12 102 -27.5t69 -44t25 -82.5q0 -48 -26 -85.5t-73.5 -58.5t-112.5 -21zM177 -267v77h115q25 0 38 8.5t13 26.5t-13 26t-38 8h-62v125h84v-55q33 1 62.5 -10t48 -34.5t18.5 -61.5
q0 -37 -18.5 -61.5t-48 -36.5t-64.5 -12h-135z" />
    <glyph glyph-name="Scaron" unicode="&#x160;" horiz-adv-x="604" 
d="M310 -12q-76 0 -135.5 26t-94 76t-35.5 121h143q1 -31 16 -56t41.5 -39.5t63.5 -14.5q32 0 55.5 10.5t36.5 29.5t13 45q0 30 -14.5 50t-40 34t-59 25.5t-70.5 24.5q-83 27 -126.5 72t-43.5 119q0 63 30.5 108t84.5 69t123 24q71 0 124.5 -24.5t85 -70.5t32.5 -108h-144
q-1 23 -13.5 43.5t-34.5 33t-52 12.5q-26 1 -47.5 -8t-34 -26.5t-12.5 -43.5q0 -25 12.5 -42t34.5 -29.5t52 -23t65 -21.5q52 -18 96 -42.5t70 -63.5t26 -103q0 -55 -29 -102t-83.5 -76t-135.5 -29zM300 745l-148 80v96l148 -86l147 86v-96z" />
    <glyph glyph-name="scaron" unicode="&#x161;" horiz-adv-x="532" 
d="M272 -12q-69 0 -120 22t-80 61t-33 88h134q5 -19 17 -34.5t32 -24.5t48 -9q27 0 44 7.5t25.5 20.5t8.5 27q0 21 -12 32.5t-35 18.5t-56 14q-36 7 -70.5 17.5t-61.5 26.5t-43 41t-16 62q0 45 24 80.5t70 56.5t111 21q91 0 144 -41t63 -113h-127q-6 23 -26.5 36.5
t-54.5 13.5q-36 0 -55 -13t-19 -34q0 -14 12.5 -25t35.5 -18.5t56 -14.5q58 -12 102 -27.5t69 -44t25 -82.5q0 -48 -26 -85.5t-73.5 -58.5t-112.5 -21zM266 563l-148 80v96l148 -86l147 86v-96z" />
    <glyph glyph-name="uni0162" unicode="&#x162;" horiz-adv-x="597" 
d="M232 0v591h-205v109h543v-109h-204v-591h-134zM209 -267v77h115q25 0 38 8.5t13 26.5t-13 26t-38 8h-62v125h84v-55q33 1 62.5 -10t48 -34.5t18.5 -61.5q0 -37 -18.5 -61.5t-48 -36.5t-64.5 -12h-135z" />
    <glyph glyph-name="uni0163" unicode="&#x163;" horiz-adv-x="433" 
d="M293 0q-53 0 -92.5 16.5t-61.5 55t-22 105.5v214h-86v113h86l15 137h120v-137h133v-113h-133v-216q0 -34 15 -47t51 -13h66v-115h-91zM194 -267v77h115q25 0 38 8.5t13 26.5t-13 26t-38 8h-62v125h84v-55q33 1 62.5 -10t48 -34.5t18.5 -61.5q0 -37 -18.5 -61.5t-48 -36.5
t-64.5 -12h-135z" />
    <glyph glyph-name="Tcaron" unicode="&#x164;" horiz-adv-x="597" 
d="M232 0v591h-205v109h543v-109h-204v-591h-134zM299 745l-148 80v96l148 -86l147 86v-96z" />
    <glyph glyph-name="tcaron" unicode="&#x165;" horiz-adv-x="433" 
d="M293 0q-53 0 -92.5 16.5t-61.5 55t-22 105.5v214h-86v113h86l15 137h120v-137h133v-113h-133v-216q0 -34 15 -47t51 -13h66v-115h-91zM312 546v55q24 0 35.5 8.5t11.5 27.5v19h-47v106h105q7 -29 10 -51.5t3 -46.5q0 -57 -30 -87.5t-88 -30.5z" />
    <glyph glyph-name="Utilde" unicode="&#x168;" horiz-adv-x="685" 
d="M340 -12q-77 0 -140 31t-100 93t-37 158v430h135v-431q0 -52 17 -87.5t49.5 -52.5t77.5 -17q46 0 78.5 17t49.5 52.5t17 87.5v431h135v-430q0 -96 -38 -158t-102.5 -93t-141.5 -31zM406 751q-29 0 -49.5 11.5t-37.5 23t-38 11.5q-16 0 -27.5 -11t-15.5 -34h-71
q11 67 42.5 97.5t77.5 30.5q29 0 49 -11.5t37.5 -23t38.5 -11.5q17 0 28.5 11.5t14.5 33.5h71q-10 -66 -41.5 -97t-78.5 -31z" />
    <glyph glyph-name="utilde" unicode="&#x169;" horiz-adv-x="616" 
d="M254 -12q-61 0 -104.5 25.5t-66.5 75t-23 122.5v293h135v-279q0 -61 25.5 -92t78.5 -31q34 0 60 15.5t41.5 45t15.5 72.5v269h134v-504h-118l-11 82v0q-22 -43 -65 -68.5t-102 -25.5zM363 570q-29 0 -49.5 11t-37.5 22.5t-38 11.5q-16 0 -27.5 -11t-15.5 -34h-71
q11 67 42.5 98t77.5 31q29 0 49 -11.5t37.5 -23t38.5 -11.5q17 0 28.5 11t14.5 34h71q-10 -67 -41.5 -97.5t-78.5 -30.5z" />
    <glyph glyph-name="Umacron" unicode="&#x16a;" horiz-adv-x="685" 
d="M340 -12q-77 0 -140 31t-100 93t-37 158v430h135v-431q0 -52 17 -87.5t49.5 -52.5t77.5 -17q46 0 78.5 17t49.5 52.5t17 87.5v431h135v-430q0 -96 -38 -158t-102.5 -93t-141.5 -31zM153 781v95h378v-95h-378z" />
    <glyph glyph-name="umacron" unicode="&#x16b;" horiz-adv-x="616" 
d="M254 -12q-61 0 -104.5 25.5t-66.5 75t-23 122.5v293h135v-279q0 -61 25.5 -92t78.5 -31q34 0 60 15.5t41.5 45t15.5 72.5v269h134v-504h-118l-11 82v0q-22 -43 -65 -68.5t-102 -25.5zM115 594v95h378v-95h-378z" />
    <glyph glyph-name="Ubreve" unicode="&#x16c;" horiz-adv-x="685" 
d="M340 -12q-77 0 -140 31t-100 93t-37 158v430h135v-431q0 -52 17 -87.5t49.5 -52.5t77.5 -17q46 0 78.5 17t49.5 52.5t17 87.5v431h135v-430q0 -96 -38 -158t-102.5 -93t-141.5 -31zM343 748q-49 0 -84.5 19t-54.5 53.5t-19 82.5v17h71q0 -34 19 -53t68 -19q48 0 67.5 19
t19.5 53h71v-18q0 -47 -19.5 -82t-55 -53.5t-83.5 -18.5z" />
    <glyph glyph-name="ubreve" unicode="&#x16d;" horiz-adv-x="616" 
d="M254 -12q-61 0 -104.5 25.5t-66.5 75t-23 122.5v293h135v-279q0 -61 25.5 -92t78.5 -31q34 0 60 15.5t41.5 45t15.5 72.5v269h134v-504h-118l-11 82v0q-22 -43 -65 -68.5t-102 -25.5zM304 563q-49 0 -84.5 18.5t-54.5 53.5t-19 83v17h71q0 -34 19 -53t68 -19
q48 0 67.5 19t19.5 53h71v-18q0 -48 -19.5 -82.5t-55 -53t-83.5 -18.5z" />
    <glyph glyph-name="Uring" unicode="&#x16e;" horiz-adv-x="685" 
d="M340 -12q-77 0 -140 31t-100 93t-37 158v430h135v-431q0 -52 17 -87.5t49.5 -52.5t77.5 -17q46 0 78.5 17t49.5 52.5t17 87.5v431h135v-430q0 -96 -38 -158t-102.5 -93t-141.5 -31zM342 749q-47 0 -81 30.5t-34 83.5t34 83t81 30q48 0 82 -30t34 -83t-34 -83.5t-82 -30.5
zM342 809q22 0 37 15t15 39q0 25 -15 39t-37 14q-21 0 -36 -14t-15 -39q0 -24 15 -39t36 -15z" />
    <glyph glyph-name="uring" unicode="&#x16f;" horiz-adv-x="616" 
d="M254 -12q-61 0 -104.5 25.5t-66.5 75t-23 122.5v293h135v-279q0 -61 25.5 -92t78.5 -31q34 0 60 15.5t41.5 45t15.5 72.5v269h134v-504h-118l-11 82v0q-22 -43 -65 -68.5t-102 -25.5zM304 570q-47 0 -81 30t-34 83t34 83.5t81 30.5q48 0 82 -30.5t34 -83.5t-34 -83
t-82 -30zM304 629q22 0 37 15t15 39q0 25 -15 39t-37 14q-21 0 -36 -14t-15 -39q0 -24 15 -39t36 -15z" />
    <glyph glyph-name="Uhungarumlaut" unicode="&#x170;" horiz-adv-x="685" 
d="M340 -12q-77 0 -140 31t-100 93t-37 158v430h135v-431q0 -52 17 -87.5t49.5 -52.5t77.5 -17q46 0 78.5 17t49.5 52.5t17 87.5v431h135v-430q0 -96 -38 -158t-102.5 -93t-141.5 -31zM376 747l82 184h110l-108 -184h-84zM202 747l71 184h110l-96 -184h-85z" />
    <glyph glyph-name="uhungarumlaut" unicode="&#x171;" horiz-adv-x="616" 
d="M254 -12q-61 0 -104.5 25.5t-66.5 75t-23 122.5v293h135v-279q0 -61 25.5 -92t78.5 -31q34 0 60 15.5t41.5 45t15.5 72.5v269h134v-504h-118l-11 82v0q-22 -43 -65 -68.5t-102 -25.5zM338 551l82 184h110l-108 -184h-84zM164 551l71 184h110l-96 -184h-85z" />
    <glyph glyph-name="Uogonek" unicode="&#x172;" horiz-adv-x="685" 
d="M340 -12q-77 0 -140 31t-100 93t-37 158v430h135v-431q0 -52 17 -87.5t49.5 -52.5t77.5 -17q46 0 78.5 17t49.5 52.5t17 87.5v431h135v-430q0 -96 -38 -158t-102.5 -93t-141.5 -31zM338 -210q-37 0 -68 11t-49.5 35t-18.5 60q0 27 13 52t44.5 49t86.5 47l45 20l30 -63
l-51 -25q-37 -18 -51.5 -34t-14.5 -34t13.5 -29t37.5 -11q15 0 33.5 4t37.5 11v-79q-19 -7 -42 -10.5t-46 -3.5z" />
    <glyph glyph-name="uogonek" unicode="&#x173;" horiz-adv-x="616" 
d="M254 -12q-61 0 -104.5 25.5t-66.5 75t-23 122.5v293h135v-279q0 -61 25.5 -92t78.5 -31q34 0 60 15.5t41.5 45t15.5 72.5v269h134v-504h-118l-11 82v0q-22 -43 -65 -68.5t-102 -25.5zM468 -211q-37 0 -68 11t-49.5 35t-18.5 60q0 27 13 52t44.5 49t86.5 47l45 20l30 -63
l-51 -25q-36 -18 -51 -34t-15 -34t13.5 -29t37.5 -11q15 0 33.5 4t37.5 11v-79q-19 -7 -41.5 -10.5t-46.5 -3.5z" />
    <glyph glyph-name="Wcircumflex" unicode="&#x174;" horiz-adv-x="1018" 
d="M210 0l-184 700h144l122 -547v0l144 547h149l140 -547v0l123 547h145l-189 -700h-161l-134 510v0l-139 -510h-160zM362 745v97l148 79l147 -79v-97l-147 83z" />
    <glyph glyph-name="wcircumflex" unicode="&#x175;" horiz-adv-x="820" 
d="M165 0l-148 504h133l98 -409l-25 1l112 408h150l112 -408l-26 -1l99 409h133l-148 -504h-140l-119 420h28l-119 -420h-140zM262 550v96l148 80l147 -80v-96l-147 82z" />
    <glyph glyph-name="Ycircumflex" unicode="&#x176;" horiz-adv-x="635" 
d="M250 0v246l-236 454h153l165 -346h-27l164 346h152l-236 -454v-246h-135zM170 745v97l148 79l147 -79v-97l-147 83z" />
    <glyph glyph-name="ycircumflex" unicode="&#x177;" horiz-adv-x="604" 
d="M130 -220l122 276h-30l-202 448h147l144 -325v0l130 325h143l-311 -724h-143zM155 550v96l148 80l147 -80v-96l-147 82z" />
    <glyph glyph-name="Ydieresis" unicode="&#x178;" horiz-adv-x="635" 
d="M250 0v246l-236 454h153l165 -346h-27l164 346h152l-236 -454v-246h-135zM225 767q-26 0 -44.5 18.5t-18.5 45.5t18.5 45.5t44.5 18.5q28 0 46.5 -18.5t18.5 -45.5t-18.5 -45.5t-46.5 -18.5zM409 767q-27 0 -45.5 18.5t-18.5 45.5t18.5 45.5t45.5 18.5t45.5 -18.5
t18.5 -45.5t-18.5 -45.5t-45.5 -18.5z" />
    <glyph glyph-name="Zacute" unicode="&#x179;" horiz-adv-x="577" 
d="M49 0v104l323 484h-321v112h476v-104l-324 -484h326v-112h-480zM183 743l-12 89l219 126v0l16 -103z" />
    <glyph glyph-name="zacute" unicode="&#x17a;" horiz-adv-x="490" 
d="M33 0v108l254 284h-251v112h406v-109l-256 -283h261v-112h-414zM138 547l-12 89l219 125v0l16 -103z" />
    <glyph glyph-name="Zdotaccent" unicode="&#x17b;" horiz-adv-x="577" 
d="M49 0v104l323 484h-321v112h476v-104l-324 -484h326v-112h-480zM288 764q-26 0 -44.5 18.5t-18.5 44.5q0 27 18.5 45.5t44.5 18.5q28 0 46.5 -18.5t18.5 -45.5q0 -26 -18.5 -44.5t-46.5 -18.5z" />
    <glyph glyph-name="zdotaccent" unicode="&#x17c;" horiz-adv-x="490" 
d="M33 0v108l254 284h-251v112h406v-109l-256 -283h261v-112h-414zM243 571q-26 0 -44.5 18.5t-18.5 44.5q0 27 18.5 45.5t44.5 18.5q28 0 46.5 -18.5t18.5 -45.5q0 -26 -18.5 -44.5t-46.5 -18.5z" />
    <glyph glyph-name="Zcaron" unicode="&#x17d;" horiz-adv-x="577" 
d="M49 0v104l323 484h-321v112h476v-104l-324 -484h326v-112h-480zM289 745l-148 80v96l148 -86l147 86v-96z" />
    <glyph glyph-name="zcaron" unicode="&#x17e;" horiz-adv-x="490" 
d="M33 0v108l254 284h-251v112h406v-109l-256 -283h261v-112h-414zM244 563l-148 80v96l148 -86l147 86v-96z" />
    <glyph glyph-name="uni018F" unicode="&#x18f;" horiz-adv-x="763" 
d="M378 -12q-75 0 -136.5 23.5t-105.5 68t-67 107.5t-23 141q0 14 1 29.5t2 31.5h547v-98h-403q1 -55 24.5 -94.5t64.5 -61t95 -21.5q40 0 75 13t61.5 39t41.5 64t15 88v55q0 68 -25 115.5t-67.5 73t-97.5 25.5q-62 0 -106 -28t-63 -79h-155q20 68 65 120.5t110.5 82
t147.5 29.5q101 0 177 -45t118.5 -126.5t42.5 -190.5q0 -108 -42 -189.5t-118.5 -127t-178.5 -45.5z" />
    <glyph glyph-name="florin" unicode="&#x192;" horiz-adv-x="335" 
d="M-55 -235l11 114h24q23 0 34.5 12t14.5 39l70 656q10 100 70 145t174 45l-12 -114q-47 0 -70.5 -17t-26.5 -59l-70 -656q-6 -62 -31.5 -98.5t-66.5 -51.5t-95 -15h-26zM22 442l11 112h294l-11 -112h-294z" />
    <glyph glyph-name="AEacute" unicode="&#x1fc;" horiz-adv-x="945" 
d="M22 0l376 700h493v-107h-268v-185h238v-104h-238v-197h268v-107h-403v597v0l-319 -597h-147zM166 135l56 104h330v-104h-386zM465 743l-12 89l219 126v0l16 -103z" />
    <glyph glyph-name="aeacute" unicode="&#x1fd;" horiz-adv-x="944" 
d="M246 -12q-64 0 -107.5 20.5t-65 55.5t-21.5 77q0 46 22.5 82t70 56t118.5 20h131q0 36 -10 59.5t-31 35.5t-54 12q-35 0 -61.5 -16.5t-32.5 -48.5h-131q5 53 35 92t79.5 61t110.5 22q59 0 104.5 -18t74.5 -51q32 32 77 50.5t97 18.5q74 0 129.5 -33t87 -89t31.5 -129
q0 -10 -0.5 -22t-2.5 -25h-366q3 -38 19 -64.5t42.5 -41t57.5 -14.5q41 0 66 19t38 48h135q-13 -49 -46 -89.5t-81.5 -64t-109.5 -23.5q-65 0 -118 26.5t-87 72.5q-20 -30 -49.5 -52t-67 -34.5t-84.5 -12.5zM267 92q32 0 57.5 16t42 42.5t21.5 59.5v6h-107q-30 0 -49.5 -7.5
t-28.5 -21.5t-9 -32q0 -20 9 -33.5t25.5 -21.5t38.5 -8zM534 300h229q-3 50 -34 78t-76 28q-29 0 -54 -12t-42 -35t-23 -59zM367 547l-12 89l219 125v0l16 -103z" />
    <glyph glyph-name="uni0218" unicode="&#x218;" horiz-adv-x="604" 
d="M310 -12q-76 0 -135.5 26t-94 76t-35.5 121h143q1 -31 16 -56t41.5 -39.5t63.5 -14.5q32 0 55.5 10.5t36.5 29.5t13 45q0 30 -14.5 50t-40 34t-59 25.5t-70.5 24.5q-83 27 -126.5 72t-43.5 119q0 63 30.5 108t84.5 69t123 24q71 0 124.5 -24.5t85 -70.5t32.5 -108h-144
q-1 23 -13.5 43.5t-34.5 33t-52 12.5q-26 1 -47.5 -8t-34 -26.5t-12.5 -43.5q0 -25 12.5 -42t34.5 -29.5t52 -23t65 -21.5q52 -18 96 -42.5t70 -63.5t26 -103q0 -55 -29 -102t-83.5 -76t-135.5 -29zM249 -280v54q26 0 38 15.5t12 47.5v15h-56v104h113q8 -27 11.5 -52
t3.5 -48q0 -64 -30.5 -100t-91.5 -36z" />
    <glyph glyph-name="uni0219" unicode="&#x219;" horiz-adv-x="532" 
d="M272 -12q-69 0 -120 22t-80 61t-33 88h134q5 -19 17 -34.5t32 -24.5t48 -9q27 0 44 7.5t25.5 20.5t8.5 27q0 21 -12 32.5t-35 18.5t-56 14q-36 7 -70.5 17.5t-61.5 26.5t-43 41t-16 62q0 45 24 80.5t70 56.5t111 21q91 0 144 -41t63 -113h-127q-6 23 -26.5 36.5
t-54.5 13.5q-36 0 -55 -13t-19 -34q0 -14 12.5 -25t35.5 -18.5t56 -14.5q58 -12 102 -27.5t69 -44t25 -82.5q0 -48 -26 -85.5t-73.5 -58.5t-112.5 -21zM208 -280v54q26 0 38 15.5t12 47.5v15h-56v104h113q8 -27 11.5 -52t3.5 -48q0 -64 -30.5 -100t-91.5 -36z" />
    <glyph glyph-name="uni021A" unicode="&#x21a;" horiz-adv-x="597" 
d="M232 0v591h-205v109h543v-109h-204v-591h-134zM240 -280v54q26 0 38 15.5t12 47.5v15h-56v104h113q8 -27 11.5 -52t3.5 -48q0 -64 -30.5 -100t-91.5 -36z" />
    <glyph glyph-name="uni021B" unicode="&#x21b;" horiz-adv-x="433" 
d="M293 0q-53 0 -92.5 16.5t-61.5 55t-22 105.5v214h-86v113h86l15 137h120v-137h133v-113h-133v-216q0 -34 15 -47t51 -13h66v-115h-91zM225 -280v54q26 0 38 15.5t12 47.5v15h-56v104h113q8 -27 11.5 -52t3.5 -48q0 -64 -30.5 -100t-91.5 -36z" />
    <glyph glyph-name="uni0237" unicode="&#x237;" horiz-adv-x="257" 
d="M-29 -220v115h41q32 0 45.5 13t13.5 42v554h135v-553q0 -62 -21.5 -99.5t-60.5 -54.5t-92 -17h-61z" />
    <glyph glyph-name="uni0259" unicode="&#x259;" horiz-adv-x="602" 
d="M294 516q76 0 134.5 -33t91 -91t32.5 -136t-32.5 -138.5t-90 -95t-135.5 -34.5q-74 0 -130.5 32.5t-87.5 89t-31 127.5q0 11 0.5 23t1.5 25h409v-83h-275q3 -48 34.5 -76.5t78.5 -28.5q35 0 63.5 16t45 48t16.5 80v29q0 42 -15.5 72t-43.5 46.5t-65 16.5t-61.5 -15.5
t-37.5 -41.5h-137q15 48 47.5 85.5t80.5 60t107 22.5z" />
    <glyph glyph-name="circumflex" unicode="&#x2c6;" horiz-adv-x="318" 
d="M11 541v97l148 79l147 -79v-97l-147 83z" />
    <glyph glyph-name="caron" unicode="&#x2c7;" horiz-adv-x="318" 
d="M159 541l-148 80v96l148 -86l147 86v-96z" />
    <glyph glyph-name="breve" unicode="&#x2d8;" horiz-adv-x="339" 
d="M169 544q-49 0 -84 19t-54.5 53.5t-19.5 82.5v17h71q0 -34 19 -53t68 -19q48 0 67.5 19t19.5 53h71v-18q0 -47 -19.5 -82t-55 -53.5t-83.5 -18.5z" />
    <glyph glyph-name="dotaccent" unicode="&#x2d9;" horiz-adv-x="152" 
d="M76 560q-27 0 -45.5 18.5t-18.5 44.5q0 27 18.5 45.5t45.5 18.5t45.5 -18.5t18.5 -45.5q0 -26 -18.5 -44.5t-45.5 -18.5z" />
    <glyph glyph-name="ring" unicode="&#x2da;" horiz-adv-x="250" 
d="M125 545q-47 0 -81 30.5t-34 83.5t34 83t81 30q48 0 82 -30t34 -83t-34 -83.5t-82 -30.5zM125 605q22 0 37 15t15 39q0 25 -15 39t-37 14q-21 0 -36 -14t-15 -39q0 -24 15.5 -39t35.5 -15z" />
    <glyph glyph-name="ogonek" unicode="&#x2db;" horiz-adv-x="224" 
d="M136 -211q-37 0 -68 11t-49.5 35t-18.5 60q0 27 13 52t44.5 49t86.5 47l45 20l30 -63l-51 -25q-37 -18 -51.5 -34t-14.5 -34t13.5 -29t37.5 -11q15 0 33.5 4t37.5 11v-79q-19 -7 -42 -10.5t-46 -3.5z" />
    <glyph glyph-name="tilde" unicode="&#x2dc;" horiz-adv-x="377" 
d="M248 547q-29 0 -49.5 11.5t-37.5 23t-38 11.5q-16 0 -27.5 -11t-15.5 -34h-71q11 67 42.5 97.5t77.5 30.5q29 0 49 -11.5t37.5 -23t37.5 -11.5q17 0 29 11.5t15 33.5h71q-10 -66 -42 -97t-78 -31z" />
    <glyph glyph-name="hungarumlaut" unicode="&#x2dd;" horiz-adv-x="392" 
d="M185 543l82 184h110l-108 -184h-84zM11 543l72 184h109l-96 -184h-85z" />
    <glyph glyph-name="gravecomb" unicode="&#x300;" 
d="M222 547l-222 111l15 103v0l220 -125z" />
    <glyph glyph-name="acutecomb" unicode="&#x301;" 
d="M12 547l-12 89l219 125v0l16 -103z" />
    <glyph glyph-name="uni0302" unicode="&#x302;" 
d="M0 550v96l148 80l147 -80v-96l-147 82z" />
    <glyph glyph-name="tildecomb" unicode="&#x303;" 
d="M239 570q-29 0 -49.5 11t-37.5 22.5t-38 11.5q-16 0 -27.5 -11t-15.5 -34h-71q11 67 42.5 98t77.5 31q29 0 49 -11.5t37.5 -23t38.5 -11.5q17 0 28.5 11t14.5 34h71q-10 -67 -41.5 -97.5t-78.5 -30.5z" />
    <glyph glyph-name="uni0304" unicode="&#x304;" 
d="M0 594v95h378v-95h-378z" />
    <glyph glyph-name="uni0306" unicode="&#x306;" 
d="M158 563q-49 0 -84.5 18.5t-54.5 53.5t-19 83v17h71q0 -34 19 -53t68 -19q48 0 67.5 19t19.5 53h71v-18q0 -48 -19.5 -82.5t-55 -53t-83.5 -18.5z" />
    <glyph glyph-name="uni0307" unicode="&#x307;" 
d="M63 571q-26 0 -44.5 18.5t-18.5 44.5q0 27 18.5 45.5t44.5 18.5q28 0 46.5 -18.5t18.5 -45.5q0 -26 -18.5 -44.5t-46.5 -18.5z" />
    <glyph glyph-name="uni0308" unicode="&#x308;" 
d="M63 570q-26 0 -44.5 18t-18.5 45t18.5 45.5t44.5 18.5q28 0 46.5 -18.5t18.5 -45.5t-18.5 -45t-46.5 -18zM247 570q-27 0 -45.5 18t-18.5 45t18.5 45.5t45.5 18.5t45.5 -18.5t18.5 -45.5t-18.5 -45t-45.5 -18z" />
    <glyph glyph-name="uni030A" unicode="&#x30a;" 
d="M115 570q-47 0 -81 30t-34 83t34 83.5t81 30.5q48 0 82 -30.5t34 -83.5t-34 -83t-82 -30zM115 629q22 0 37 15t15 39q0 25 -15 39t-37 14q-21 0 -36 -14t-15 -39q0 -24 15 -39t36 -15z" />
    <glyph glyph-name="uni030B" unicode="&#x30b;" 
d="M174 543l82 184h110l-108 -184h-84zM0 543l71 184h110l-96 -184h-85z" />
    <glyph glyph-name="uni030C" unicode="&#x30c;" 
d="M148 563l-148 80v96l148 -86l147 86v-96z" />
    <glyph glyph-name="uni0312" unicode="&#x312;" 
d="M118 781v-54q-23 0 -35 -9t-12 -28v-18h47v-106h-105q-6 29 -9.5 51.5t-3.5 46.5q0 56 30 86.5t88 30.5z" />
    <glyph glyph-name="uni0326" unicode="&#x326;" 
d="M6 -280v54q26 0 38 15.5t12 47.5v15h-56v104h113q8 -27 11.5 -52t3.5 -48q0 -64 -30.5 -100t-91.5 -36z" />
    <glyph glyph-name="uni0327" unicode="&#x327;" 
d="M0 -264v77h115q25 0 38 8.5t13 26.5t-13 26t-38 8h-62v125h84v-55q33 1 62.5 -10t48 -34.5t18.5 -61.5q0 -37 -18.5 -61.5t-48 -36.5t-64.5 -12h-135z" />
    <glyph glyph-name="uni0328" unicode="&#x328;" 
d="M136 -211q-37 0 -68 11t-49.5 35t-18.5 60q0 27 13 52t44.5 49t86.5 47l45 20l30 -63l-51 -25q-36 -18 -51 -34t-15 -34t13.5 -29t37.5 -11q15 0 33.5 4t37.5 11v-79q-19 -7 -41.5 -10.5t-46.5 -3.5z" />
    <glyph glyph-name="pi" unicode="&#x3c0;" horiz-adv-x="647" 
d="M104 0v400h-73v104h585v-104h-74v-400h-135v400h-168v-400h-135z" />
    <glyph glyph-name="endash" unicode="&#x2013;" horiz-adv-x="696" 
d="M77 238v113h542v-113h-542z" />
    <glyph glyph-name="emdash" unicode="&#x2014;" horiz-adv-x="918" 
d="M77 238v113h764v-113h-764z" />
    <glyph glyph-name="quoteleft" unicode="&#x2018;" horiz-adv-x="255" 
d="M30 444l103 256h92l-54 -256h-141z" />
    <glyph glyph-name="quoteright" unicode="&#x2019;" horiz-adv-x="255" 
d="M225 700l-103 -256h-92l54 256h141z" />
    <glyph glyph-name="quotesinglbase" unicode="&#x201a;" horiz-adv-x="255" 
d="M22 -111l54 253h142l-104 -253h-92z" />
    <glyph glyph-name="quotedblleft" unicode="&#x201c;" horiz-adv-x="453" 
d="M228 444l104 256h91l-54 -256h-141zM30 444l103 256h92l-54 -256h-141z" />
    <glyph glyph-name="quotedblright" unicode="&#x201d;" horiz-adv-x="453" 
d="M225 700l-103 -256h-92l54 256h141zM423 700l-103 -256h-92l54 256h141z" />
    <glyph glyph-name="quotedblbase" unicode="&#x201e;" horiz-adv-x="454" 
d="M22 -111l54 253h142l-104 -253h-92zM223 -111l54 253h141l-103 -253h-92z" />
    <glyph glyph-name="dagger" unicode="&#x2020;" horiz-adv-x="603" 
d="M234 -263l13 723l-201 -10v104l201 -11l-13 242h135l-14 -242l201 11v-104l-201 10l14 -723h-135z" />
    <glyph glyph-name="daggerdbl" unicode="&#x2021;" horiz-adv-x="604" 
d="M234 -263l14 242l-201 -10v104l201 -11v398l-201 -10v104l201 -11l-14 242h135l-14 -242l202 11v-104l-202 10v-398l202 11v-104l-202 10l14 -242h-135z" />
    <glyph glyph-name="bullet" unicode="&#x2022;" horiz-adv-x="387" 
d="M193 195q-38 0 -69 18.5t-49.5 50t-18.5 69.5q0 39 18.5 70.5t49.5 50t69 18.5q39 0 70.5 -18.5t50 -50t18.5 -70.5q0 -38 -18.5 -69.5t-50 -50t-70.5 -18.5z" />
    <glyph glyph-name="ellipsis" unicode="&#x2026;" horiz-adv-x="687" 
d="M344 -5q-38 0 -61 22.5t-23 55.5t23 55.5t61 22.5q36 0 59 -22.5t23 -55.5t-23 -55.5t-59 -22.5zM562 -5q-38 0 -61 22.5t-23 55.5t23 55.5t61 22.5q36 0 59 -22.5t23 -55.5t-23 -55.5t-59 -22.5zM127 -5q-38 0 -61 22.5t-23 55.5t23 55.5t61 22.5q36 0 59 -22.5
t23 -55.5t-23 -55.5t-59 -22.5z" />
    <glyph glyph-name="perthousand" unicode="&#x2030;" horiz-adv-x="1280" 
d="M1065 -12q-49 0 -88.5 21.5t-63 62t-23.5 95.5q0 56 23.5 96t63 61.5t88.5 21.5t88 -21.5t62 -61.5t23 -96q0 -55 -23 -95.5t-62.5 -62t-87.5 -21.5zM1064 80q20 0 35.5 10t24.5 29.5t9 47.5q0 30 -9 49t-24.5 29.5t-35.5 10.5q-19 0 -35 -10.5t-25 -29.5t-9 -49
q0 -28 9 -47.5t25 -29.5t35 -10zM187 0l393 700h131l-393 -700h-131zM687 -12q-49 0 -88.5 21.5t-62.5 62t-23 95.5q0 56 23 96t62.5 61.5t88.5 21.5t88 -21.5t62 -61.5t23 -96q0 -55 -23 -95.5t-62 -62t-88 -21.5zM686 81q20 0 35 10t24 29t9 47q0 29 -8.5 48.5t-24 29.5
t-35.5 10q-19 0 -34.5 -10t-24.5 -29.5t-9 -48.5q0 -28 9 -47t24.5 -29t34.5 -10zM216 353q-48 0 -88 22t-63 62t-23 95q0 57 23.5 96.5t63 61.5t88.5 22t87.5 -22t62 -61.5t23.5 -96.5q0 -55 -23.5 -95t-62.5 -62t-88 -22zM216 446q19 0 34.5 10t24.5 29t9 47q0 30 -9 49
t-24.5 29t-34.5 10t-34.5 -10t-24.5 -29.5t-9 -48.5q0 -28 9 -47t24.5 -29t34.5 -10z" />
    <glyph glyph-name="guilsinglleft" unicode="&#x2039;" horiz-adv-x="311" 
d="M133 120l-90 175l90 175h126l-92 -175l92 -175h-126z" />
    <glyph glyph-name="guilsinglright" unicode="&#x203a;" horiz-adv-x="311" 
d="M179 120h-127l92 175l-92 175h127l89 -175z" />
    <glyph glyph-name="fraction" unicode="&#x2044;" horiz-adv-x="512" 
d="M-4 0l393 700h132l-394 -700h-131z" />
    <glyph glyph-name="uni2074" unicode="&#x2074;" horiz-adv-x="350" 
d="M191 352v61h-165v68l154 219h111v-217h37v-70h-37v-61h-100zM128 483h71v107v0z" />
    <glyph glyph-name="Euro" unicode="&#x20ac;" horiz-adv-x="790" 
d="M21 236v78h432v-78h-432zM21 385v78h432v-78h-432zM435 -12q-105 0 -180.5 45.5t-116.5 127t-41 188.5t41 189t116.5 128t180.5 46q127 0 208 -63t101 -178h-148q-13 56 -54 87.5t-108 31.5q-63 0 -107.5 -29.5t-68 -83t-23.5 -128.5q0 -74 23.5 -128t68 -83t107.5 -29
q67 0 108 29.5t54 82.5h148q-20 -109 -101 -171t-208 -62z" />
    <glyph glyph-name="trademark" unicode="&#x2122;" horiz-adv-x="837" 
d="M27 620v80h270v-80h-85v-271h-100v271h-85zM349 349v351h133l88 -231l97 231h123v-351h-92v230l-97 -230h-68l-95 233v-233h-89z" />
    <glyph glyph-name="arrowleft" horiz-adv-x="780" 
d="M739 287h-511l250 -225l-85 -85l-354 331v79l354 330l85 -85l-250 -225h511v-120z" />
    <glyph glyph-name="arrowup" unicode="&#x2191;" horiz-adv-x="878" 
d="M34 346l365 354h80l365 -354l-85 -85l-256 251v-512h-128v512l-256 -251z" />
    <glyph glyph-name="arrowright" horiz-adv-x="780" 
d="M41 287v120h511l-250 225l85 85l354 -330v-79l-354 -331l-85 85l250 225h-511z" />
    <glyph glyph-name="arrowdown" unicode="&#x2193;" horiz-adv-x="890" 
d="M40 354l85 85l256 -251v512h128v-512l256 251l85 -85l-365 -354h-80z" />
    <glyph glyph-name="arrowboth" horiz-adv-x="952" 
d="M40 306v80l294 318l85 -72l-212 -224h538l-212 224l85 72l294 -318v-80l-294 -319l-85 72l215 229h-544l215 -229l-85 -72z" />
    <glyph glyph-name="arrowupdn" horiz-adv-x="815" 
d="M41 216l71 85l235 -154v407l-235 -153l-71 84l326 217h81l326 -217l-70 -84l-235 152v-404l235 152l70 -85l-326 -216h-81z" />
    <glyph glyph-name="uni2196" horiz-adv-x="658" 
d="M526 45l-362 363v-360h-118v511l56 57h510v-118h-361l364 -363z" />
    <glyph glyph-name="uni2197" horiz-adv-x="652" 
d="M132 57l-89 90l364 363h-361v118h510l56 -57v-511h-117v360z" />
    <glyph glyph-name="uni2198" horiz-adv-x="658" 
d="M132 627l363 -363v360h117v-511l-56 -57h-510v118h361l-364 363z" />
    <glyph glyph-name="uni2199" horiz-adv-x="658" 
d="M526 627l89 -90l-364 -363h361v-118h-510l-56 57v511h118v-360z" />
    <glyph glyph-name="minus" unicode="&#x2212;" horiz-adv-x="579" 
d="M79 238v113h422v-113h-422z" />
    <glyph glyph-name="uni2215" unicode="&#x2215;" horiz-adv-x="426" 
d="M23 -114l250 893h131l-250 -893h-131z" />
    <glyph glyph-name="i.loclTRK" horiz-adv-x="267" 
d="M66 0v504h135v-504h-135zM133 571q-26 0 -44.5 18.5t-18.5 44.5q0 27 18.5 45.5t44.5 18.5q28 0 46.5 -18.5t18.5 -45.5q0 -26 -18.5 -44.5t-46.5 -18.5z" />
    <glyph glyph-name="one.dnom" horiz-adv-x="237" 
d="M93 0v255l-70 -16v64l115 49h59v-352h-104z" />
    <glyph glyph-name="two.dnom" horiz-adv-x="361" 
d="M37 0v76l118 82q29 20 45 40.5t16 45.5q0 20 -10.5 30.5t-26.5 10.5q-19 0 -29.5 -12t-13.5 -33h-102q3 52 42.5 86t111.5 34q46 0 76.5 -15.5t45.5 -40.5t15 -53q0 -39 -26.5 -67.5t-82.5 -60.5l-69 -42h177v-81h-287z" />
    <glyph glyph-name="three.dnom" horiz-adv-x="356" 
d="M177 -4q-76 0 -114.5 31t-42.5 84h105q2 -15 8 -24t16.5 -13t22.5 -4q21 0 33 10.5t12 30.5q0 21 -14 32t-37 11h-39v50h35q24 0 37.5 10.5t13.5 31.5q0 19 -12 29t-33 10q-19 0 -30.5 -9.5t-15.5 -27.5h-97q2 30 19 56t50.5 41t84.5 15q63 0 103 -29.5t40 -73.5
q0 -31 -17.5 -50.5t-48.5 -27.5v-2q33 -10 52 -30t19 -52q0 -44 -40.5 -71.5t-109.5 -27.5z" />
    <glyph glyph-name="four.dnom" horiz-adv-x="350" 
d="M191 0v61h-165v68l154 219h111v-217h37v-70h-37v-61h-100zM128 131h71v107v0z" />
    <glyph glyph-name="one.numr" horiz-adv-x="237" 
d="M93 352v255l-70 -16v64l115 49h59v-352h-104z" />
    <glyph glyph-name="two.numr" horiz-adv-x="361" 
d="M37 352v76l118 82q29 20 45 40.5t16 45.5q0 20 -10.5 30.5t-26.5 10.5q-19 0 -29.5 -12t-13.5 -33h-102q3 52 42.5 86t111.5 34q46 0 76.5 -15.5t45.5 -40.5t15 -53q0 -39 -26.5 -67.5t-82.5 -60.5l-69 -42h177v-81h-287z" />
    <glyph glyph-name="three.numr" horiz-adv-x="356" 
d="M177 348q-76 0 -114.5 31t-42.5 84h105q2 -15 8 -24t16.5 -13t22.5 -4q21 0 33 10.5t12 30.5q0 21 -14 32t-37 11h-39v50h35q24 0 37.5 10.5t13.5 31.5q0 19 -12 29t-33 10q-19 0 -30.5 -9.5t-15.5 -27.5h-97q2 30 19 56t50.5 41t84.5 15q63 0 103 -29.5t40 -73.5
q0 -31 -17.5 -50.5t-48.5 -27.5v-2q33 -10 52 -30t19 -52q0 -44 -40.5 -71.5t-109.5 -27.5z" />
    <glyph glyph-name="four.numr" horiz-adv-x="350" 
d="M191 352v61h-165v68l154 219h111v-217h37v-70h-37v-61h-100zM128 483h71v107v0z" />
    <glyph glyph-name="quotedblleft.ss08" horiz-adv-x="764" 
d="M382 -12q75 0 140.5 28t115.5 78t78 115.5t28 140.5t-28 140.5t-78 115.5t-115.5 78t-140.5 28t-140.5 -28t-115.5 -78t-78 -115.5t-28 -140.5t28 -140.5t78 -115.5t115.5 -78t140.5 -28zM362 484v-59q-29 0 -42.5 -16.5t-13.5 -51.5v-22h63v-116h-124q-9 33 -13.5 62
t-4.5 55q0 47 15 80t45 50.5t75 17.5zM543 484v-59q-29 0 -42.5 -16.5t-13.5 -51.5v-22h63v-116h-124q-10 33 -14 62t-4 55q0 47 15 80t45 50.5t75 17.5z" />
    <glyph glyph-name="quotedblright.ss08" horiz-adv-x="764" 
d="M382 712q-75 0 -140.5 -28t-115.5 -78t-78 -115.5t-28 -140.5t28 -140.5t78 -115.5t115.5 -78t140.5 -28t140.5 28t115.5 78t78 115.5t28 140.5t-28 140.5t-78 115.5t-115.5 78t-140.5 28zM402 216v59q29 0 42.5 16.5t13.5 51.5v22h-63v116h124q10 -32 14 -61.5t4 -55.5
q0 -47 -15 -80t-45 -50.5t-75 -17.5zM221 216v59q30 0 43.5 16.5t13.5 51.5v22h-64v116h125q9 -32 13 -61.5t4 -55.5q0 -47 -14.5 -80t-44.5 -50.5t-76 -17.5z" />
    <glyph glyph-name="arrowup.ss08" horiz-adv-x="764" 
d="M382 -12q-75 0 -140.5 28t-115.5 78t-78 115.5t-28 140.5t28 140.5t78 115.5t115.5 78t140.5 28t140.5 -28t115.5 -77.5t78 -115t28 -141.5q0 -75 -28 -140.5t-78 -115.5t-115.5 -78t-140.5 -28zM338 165h89v240l108 -106l57 58l-183 179h-53l-183 -180l57 -58l108 107
v-240z" />
    <glyph glyph-name="uni2197.ss08" horiz-adv-x="764" 
d="M382 -12q-75 0 -140.5 28t-115.5 78t-78 115.5t-28 140.5t28 140.5t78 115.5t115.5 78t140.5 28t140.5 -28t115.5 -77.5t78 -115.5t28 -141t-28 -140.5t-78 -115.5t-115.5 -78t-140.5 -28zM286 197l172 169v-165h78v266l-37 37h-265v-79h164l-171 -169z" />
    <glyph glyph-name="arrowright.ss08" horiz-adv-x="764" 
d="M382 -12q-75 0 -140.5 28t-115.5 78t-78 115.5t-28 140.5t28 140.5t78 115.5t115.5 78t140.5 28t140.5 -28t115.5 -78t78 -115.5t28 -140.5t-28 -140.5t-77.5 -115.5t-115.5 -78t-141 -28zM387 142l181 182v53l-181 181l-57 -56l112 -109h-246v-85h246l-112 -110z" />
    <glyph glyph-name="uni2198.ss08" horiz-adv-x="764" 
d="M382 712q75 0 140.5 -28t115.5 -78t78 -115.5t28 -140.5t-28 -141t-78 -115.5t-115.5 -77.5t-140.5 -28t-140.5 28t-115.5 78t-78 115.5t-28 140.5t28 140.5t78 115.5t115.5 78t140.5 28zM286 503l-59 -59l171 -169h-164v-79h265l37 37v266h-78v-165z" />
    <glyph glyph-name="arrowdown.ss08" horiz-adv-x="764" 
d="M382 712q75 0 140.5 -28t115.5 -78t78 -115.5t28 -140.5q0 -76 -28 -141.5t-78 -115t-115.5 -77.5t-140.5 -28t-140.5 28t-115.5 78t-78 115.5t-28 140.5t28 140.5t78 115.5t115.5 78t140.5 28zM338 535v-240l-108 107l-57 -58l183 -180h53l183 179l-57 58l-108 -106v240
h-89z" />
    <glyph glyph-name="uni2199.ss08" horiz-adv-x="764" 
d="M382 712q75 0 140.5 -28t115.5 -78t78 -115.5t28 -140.5t-28 -140.5t-78 -115.5t-115.5 -78t-140.5 -28t-140.5 28t-115.5 77.5t-78 115.5t-28 141t28 140.5t78 115.5t115.5 78t140.5 28zM478 503l-172 -169v165h-78v-266l37 -37h265v79h-164l171 169z" />
    <glyph glyph-name="arrowleft.ss08" horiz-adv-x="764" 
d="M382 -12q-75 0 -141 28t-115.5 78t-77.5 115.5t-28 140.5t28 140.5t78 115.5t115.5 78t140.5 28t140.5 -28t115.5 -78t78 -115.5t28 -140.5t-28 -140.5t-78 -115.5t-115.5 -78t-140.5 -28zM377 142l57 56l-112 110h246v85h-246l112 109l-57 56l-181 -181v-53z" />
    <glyph glyph-name="uni2196.ss08" horiz-adv-x="764" 
d="M382 -12q-75 0 -140.5 28t-115.5 78t-78 115.5t-28 140.5t28 141t78 115.5t115.5 77.5t140.5 28t140.5 -28t115.5 -78t78 -115.5t28 -140.5t-28 -140.5t-78 -115.5t-115.5 -78t-140.5 -28zM478 197l59 59l-171 169h164v79h-265l-37 -37v-266h78v165z" />
    <glyph glyph-name="arrowboth.ss08" horiz-adv-x="764" 
d="M382 -12q-75 0 -140.5 28t-115.5 78t-78 115.5t-28 140.5t28 140.5t78 115.5t115.5 78t140.5 28t140.5 -28t115.5 -77.5t78 -115.5t28 -141t-28 -140.5t-78 -115.5t-115.5 -78t-140.5 -28zM288 148l64 50l-89 108h243l-89 -108l64 -50l142 176v53l-142 174l-64 -48
l89 -109h-243l89 109l-64 48l-143 -174v-53z" />
    <glyph glyph-name="arrowupdn.ss08" horiz-adv-x="764" 
d="M382 -12q-75 0 -140.5 28t-115.5 78t-78 115.5t-28 140.5t28 140.5t78 115.5t115.5 78t140.5 28t140.5 -28t115.5 -78t78 -115.5t28 -140.5t-28 -140.5t-77.5 -115.5t-115.5 -78t-141 -28zM357 113h53l173 142l-47 63l-109 -89v242l109 -89l47 63l-173 142h-53l-175 -141
l48 -64l109 89v-242l-109 89l-48 -64z" />
    <glyph glyph-name="uni030C.alt" 
d="M0 509v55q24 0 35.5 8.5t11.5 27.5v19h-47v106h105q7 -29 10 -51.5t3 -46.5q0 -57 -30 -87.5t-88 -30.5z" />
    <glyph glyph-name="uni0308.case" 
d="M63 767q-26 0 -44.5 18.5t-18.5 45.5t18.5 45.5t44.5 18.5q28 0 46.5 -18.5t18.5 -45.5t-18.5 -45.5t-46.5 -18.5zM247 767q-27 0 -45.5 18.5t-18.5 45.5t18.5 45.5t45.5 18.5t45.5 -18.5t18.5 -45.5t-18.5 -45.5t-45.5 -18.5z" />
    <glyph glyph-name="uni0307.case" 
d="M63 764q-26 0 -44.5 18.5t-18.5 44.5q0 27 18.5 45.5t44.5 18.5q28 0 46.5 -18.5t18.5 -45.5q0 -26 -18.5 -44.5t-46.5 -18.5z" />
    <glyph glyph-name="gravecomb.case" 
d="M222 743l-222 112l15 103v0l220 -126z" />
    <glyph glyph-name="acutecomb.case" 
d="M12 743l-12 89l219 126v0l16 -103z" />
    <glyph glyph-name="uni030B.case" 
d="M174 747l82 184h110l-108 -184h-84zM0 747l71 184h110l-96 -184h-85z" />
    <glyph glyph-name="uni0302.case" 
d="M0 745v97l148 79l147 -79v-97l-147 83z" />
    <glyph glyph-name="uni030C.case" 
d="M148 745l-148 80v96l148 -86l147 86v-96z" />
    <glyph glyph-name="uni0306.case" 
d="M158 748q-49 0 -84.5 19t-54.5 53.5t-19 82.5v17h71q0 -34 19 -53t68 -19q48 0 67.5 19t19.5 53h71v-18q0 -47 -19.5 -82t-55 -53.5t-83.5 -18.5z" />
    <glyph glyph-name="uni030A.case" 
d="M115 749q-47 0 -81 30.5t-34 83.5t34 83t81 30q48 0 82 -30t34 -83t-34 -83.5t-82 -30.5zM115 809q22 0 37 15t15 39q0 25 -15 39t-37 14q-21 0 -36 -14t-15 -39q0 -24 15 -39t36 -15z" />
    <glyph glyph-name="tildecomb.case" 
d="M239 751q-29 0 -49.5 11.5t-37.5 23t-38 11.5q-16 0 -27.5 -11t-15.5 -34h-71q11 67 42.5 97.5t77.5 30.5q29 0 49 -11.5t37.5 -23t38.5 -11.5q17 0 28.5 11.5t14.5 33.5h71q-10 -66 -41.5 -97t-78.5 -31z" />
    <glyph glyph-name="uni0304.case" 
d="M0 781v95h378v-95h-378z" />
    <glyph glyph-name="uni0327.case" 
d="M0 -264v77h115q25 0 38 8.5t13 26.5t-13 26t-38 8h-62v125h84v-55q33 1 62.5 -10t48 -34.5t18.5 -61.5q0 -37 -18.5 -61.5t-48 -36.5t-64.5 -12h-135z" />
    <glyph glyph-name="uni0328.case" 
d="M136 -211q-37 0 -68 11t-49.5 35t-18.5 60q0 27 13 52t44.5 49t86.5 47l45 20l30 -63l-51 -25q-36 -18 -51 -34t-15 -34t13.5 -29t37.5 -11q15 0 33.5 4t37.5 11v-79q-19 -7 -41.5 -10.5t-46.5 -3.5z" />
    </font>
</defs>
</svg>
